(Classical) Калькбреннер – Секстет, Септет, Фантазия / Kalkbrenner ­– Sextet, Septet & Fantasy (Linos Ensemble: Eickhorst, Rademacher,Naylor,Buchholz,Blaumer,Linowitzki, Deutsch,Muller van Recun,Dahl,van Zelm) - 2014, FLAC (image+.cue) lossless


 

[Цитировать]

Калькбреннер – Секстет, Септет, Фантазия / Kalkbrenner ­– Sextet, Septet (Septuor) & Fantasy Op. 60 (Linos Ensemble: Eickhorst, Rademacher, Naylor, Buchholz, Blaumer, Linowitzki, Deutsch, Müller van Recun, Dahl, van Zelm)
Жанр: Classical
Страна-производитель диска: Германия
Год издания диска: 2014
Издатель (лейбл): cpo
Номер по каталогу: 777 850-2
Дата записи: 28, 29 и 31 марта 2012 г., Кельн.
Аудиокодек: FLAC
Тип рипа: image+.cue
Битрейт аудио: lossless
Продолжительность: 01:10:35
Источник: odeonmusic
Наличие сканов в содержимом раздачи: да
Треклист:-Фридрих Вильгельм Михаэль Калькбреннер (1785 — 1849).-Секстет № 1 G-dur для фортепиано в сопровождении двух скрипок, альта, виолончели и контрабаса, op. 58 (опубл. 1821/1822).
01. I. Allegro maestoso [12:52].
02. II. Menuett. Allegretto [04:27].
03. III. Cantabile [06:19].
04. IV. Rondo con spirito [08:14].
Фантазия G-dur на тему шотландской песни «We're a' noddin» для фортепиано, op. 60 (опубл. 1863).
05. [Вступление.] —
(06.) — [Тема.] —
(07.) — [Вариация I.] —
(08.) — [Вариация II.] —
(09.) — [Вариация III.] —
(10.) — [Вариация IV.] —
(11.) — [Вариация V.] Poco più adagio. —
(12.) — [Кода] [11:20].
Большой септет № 2 A-dur для фортепиано, гобоя, кларнета, валторны, фагота, виолончели и контрабаса, op. 132 (опубл. 1835).
06. I. Allegro brillante [08:59].
07. II. Andante. — Poco più lento. — Tempo I [04:58].
08. III. Scherzo. Presto con fuoco. — Trio. — [Scherzo] da capo. — Coda [04:38].
09. IV. Allegretto vivace e leggierissimo [08:17].-Исполнители:-Linos Ensemble:
Konstanze Eickhorst (фортепиано),
Winfried Rademacher (I скрипка),
Dylan Naylor (II скрипка),
Matthias Buchholz (альт),
Mario Blaumer (виолончель),
Jörg Linowitzki (контрабас),
Nick Deutsch (гобой),
Rainer Müller van Recun (кларнет),
Ole Dahl (фагот),
Paul van Zelm (валторна).-

Лог создания рипа

Exact Audio Copy V1.0 beta 3 from 29. August 2011
EAC extraction logfile from 26. November 2014, 17:05
Linos-Ensemble / Kalkbrenner - Sextet, Septet, Piano Fantasy - Linos-Ensemble
Used drive : TSSTcorpCDDVDW SH-222BB Adapter: 2 ID: 1
Read mode : Secure
Utilize accurate stream : Yes
Defeat audio cache : Yes
Make use of C2 pointers : No
Read offset correction : 6
Overread into Lead-In and Lead-Out : No
Fill up missing offset samples with silence : Yes
Delete leading and trailing silent blocks : No
Null samples used in CRC calculations : Yes
Used interface : Native Win32 interface for Win NT & 2000
Used output format : User Defined Encoder
Selected bitrate : 896 kBit/s
Quality : High
Add ID3 tag : No
Command line compressor : C:\Program Files\Exact Audio Copy\FLAC\FLAC.EXE
Additional command line options : -8 -V -T "TITLE=%title%" -T "ARTIST=%artist%" -T "ALBUMARTIST=%albumartist%" -T "ALBUM=%albumtitle%" -T "DATE=%year%" -T "TRACKNUMBER=%tracknr%" -T "TRACKTOTAL=%numtracks%" -T "GENRE=%genre%" -T "COMMENT=%comment%" -T "PERFORMER=%albuminterpret%" -T "COMPOSER=%composer%" %source% -o %dest%
TOC of the extracted CD
Track | Start | Length | Start sector | End sector
---------------------------------------------------------
1 | 0:00.00 | 12:52.32 | 0 | 57931
2 | 12:52.32 | 4:27.16 | 57932 | 77972
3 | 17:19.48 | 6:18.44 | 77973 | 106366
4 | 23:38.17 | 8:27.73 | 106367 | 144464
5 | 32:06.15 | 11:35.19 | 144465 | 196608
6 | 43:41.34 | 8:58.55 | 196609 | 237013
7 | 52:40.14 | 4:57.53 | 237014 | 259341
8 | 57:37.67 | 4:37.66 | 259342 | 280182
9 | 62:15.58 | 8:17.12 | 280183 | 317469
Range status and errors
Selected range
Filename G:\Ripped general\[7644] Kalkbrenner – Sextet, Septet, Piano Fantasy – Linos-Ensemble\Kalkbrenner - Sextet, Septet, Piano Fantasy - Linos-Ensemble.wav
Peak level 97.0 %
Extraction speed 7.3 X
Range quality 100.0 %
Test CRC C03D11AF
Copy CRC C03D11AF
Copy OK
No errors occurred
AccurateRip summary
Track 1 not present in database
Track 2 not present in database
Track 3 not present in database
Track 4 not present in database
Track 5 not present in database
Track 6 not present in database
Track 7 not present in database
Track 8 not present in database
Track 9 not present in database
None of the tracks are present in the AccurateRip database
End of status report
==== Log checksum 82413DF9430616E6C644A7DBD409AA069A7C75E2BC6B66D60B4B3E89C0AE9856 ====

Содержание индексной карты (.CUE)

REM GENRE Classical
REM DISCID 77108809
REM COMMENT "ExactAudioCopy v1.0b3"
CATALOG 0761203785025
PERFORMER "Linos-Ensemble"
TITLE "Kalkbrenner – Sextet, Septet, & Fantasy – Linos Ensemble"
FILE "Kalkbrenner – Sextet, Septet, & Fantasy – Linos Ensemble.flac" WAVE
TRACK 01 AUDIO
TITLE "Piano Sextet in G major, Op. 58 - I. Allegro maestoso"
PERFORMER "Linos-Ensemble"
ISRC DEB201285001
FLAGS DCP
INDEX 01 00:00:00
TRACK 02 AUDIO
TITLE "Piano Sextet in G major, Op. 58 - II. Menuett. Allegretto"
PERFORMER "Linos-Ensemble"
ISRC DEB201285002
FLAGS DCP
INDEX 01 12:52:32
TRACK 03 AUDIO
TITLE "Piano Sextet in G major, Op. 58 - III. Cantabile"
PERFORMER "Linos-Ensemble"
ISRC DEB201285003
FLAGS DCP
INDEX 01 17:19:48
TRACK 04 AUDIO
TITLE "Piano Sextet in G major, Op. 58 - IV. Rondo con spirito"
PERFORMER "Linos-Ensemble"
ISRC DEB201285004
FLAGS DCP
INDEX 01 23:38:17
TRACK 05 AUDIO
TITLE "Piano Fantasy on the Scottish Air 'We're A' Noddin' in G major, Op. 60"
PERFORMER "Linos-Ensemble"
ISRC DEB201285005
FLAGS DCP
INDEX 00 31:52:13
INDEX 01 32:06:15
TRACK 06 AUDIO
TITLE "Piano Septet in A major, Op. 132 - I. Allegro brillante"
PERFORMER "Linos-Ensemble"
ISRC DEB201285006
FLAGS DCP
INDEX 00 43:26:18
INDEX 01 43:41:34
TRACK 07 AUDIO
TITLE "Piano Septet in A major, Op. 132 - II. Andante"
PERFORMER "Linos-Ensemble"
ISRC DEB201285007
FLAGS DCP
INDEX 01 52:40:14
TRACK 08 AUDIO
TITLE "Piano Septet in A major, Op. 132 - III. Scherzo. Presto con fuoco"
PERFORMER "Linos-Ensemble"
ISRC DEB201285008
FLAGS DCP
INDEX 01 57:37:67
TRACK 09 AUDIO
TITLE "Piano Septet in A major, Op. 132 - IV. Allegretto vivace e leggierissimo"
PERFORMER "Linos-Ensemble"
ISRC DEB201285009
FLAGS DCP
INDEX 01 62:15:58

Вариант индексной карты (.CUE) с разделением Фантазии на отдельные треки

REM GENRE Classical
REM DISCID 77108809
REM COMMENT "ExactAudioCopy v1.0b3"
CATALOG 0761203785025
PERFORMER "Linos-Ensemble"
TITLE "Kalkbrenner – Sextet, Septet, & Fantasy – Linos Ensemble"
FILE "Kalkbrenner – Sextet, Septet, & Fantasy – Linos Ensemble.flac" WAVE
TRACK 01 AUDIO
FLAGS DCP
TITLE "Piano Sextet in G major, Op. 58 - I. Allegro maestoso"
PERFORMER "Linos-Ensemble"
ISRC DEB201285001
INDEX 01 00:00:00
TRACK 02 AUDIO
FLAGS DCP
TITLE "Piano Sextet in G major, Op. 58 - II. Menuett. Allegretto"
PERFORMER "Linos-Ensemble"
ISRC DEB201285002
INDEX 01 12:52:32
TRACK 03 AUDIO
FLAGS DCP
TITLE "Piano Sextet in G major, Op. 58 - III. Cantabile"
PERFORMER "Linos-Ensemble"
ISRC DEB201285003
INDEX 01 17:19:48
TRACK 04 AUDIO
FLAGS DCP
TITLE "Piano Sextet in G major, Op. 58 - IV. Rondo con spirito"
PERFORMER "Linos-Ensemble"
ISRC DEB201285004
INDEX 01 23:38:17
TRACK 05 AUDIO
FLAGS DCP
TITLE "Piano Fantasy on the Scottish Air 'We're A' Noddin' in G major, Op. 60 - Introduction -"
PERFORMER "Linos-Ensemble"
ISRC DEB201285005
INDEX 00 31:52:13
INDEX 01 32:06:15
TRACK 06 AUDIO
FLAGS DCP
TITLE "Piano Fantasy on the Scottish Air 'We're A' Noddin' in G major, Op. 60 - Theme -"
PERFORMER "Linos-Ensemble"
ISRC DEB201285006
INDEX 01 34:06:00
TRACK 07 AUDIO
FLAGS DCP
TITLE "Piano Fantasy on the Scottish Air 'We're A' Noddin' in G major, Op. 60 - Variation I -"
PERFORMER "Linos-Ensemble"
ISRC DEB201285007
INDEX 01 35:10:24
TRACK 08 AUDIO
FLAGS DCP
TITLE "Piano Fantasy on the Scottish Air 'We're A' Noddin' in G major, Op. 60 - Variation II -"
PERFORMER "Linos-Ensemble"
ISRC DEB201285008
INDEX 01 35:50:22
TRACK 09 AUDIO
FLAGS DCP
TITLE "Piano Fantasy on the Scottish Air 'We're A' Noddin' in G major, Op. 60 - Variation III -"
PERFORMER "Linos-Ensemble"
ISRC DEB201285009
INDEX 01 37:06:45
TRACK 10 AUDIO
FLAGS DCP
TITLE "Piano Fantasy on the Scottish Air 'We're A' Noddin' in G major, Op. 60 - Variation IV -"
PERFORMER "Linos-Ensemble"
INDEX 01 38:03:71
TRACK 11 AUDIO
FLAGS DCP
TITLE "Piano Fantasy on the Scottish Air 'We're A' Noddin' in G major, Op. 60 - Variation V -"
PERFORMER "Linos-Ensemble"
INDEX 01 38:59:00
TRACK 12 AUDIO
FLAGS DCP
TITLE "Piano Fantasy on the Scottish Air 'We're A' Noddin' in G major, Op. 60 - Coda"
PERFORMER "Linos-Ensemble"
INDEX 01 40:44:61
TRACK 13 AUDIO
TITLE "Piano Septet in A major, Op. 132 - I. Allegro brillante"
PERFORMER "Linos-Ensemble"
ISRC DEB201285006
FLAGS DCP
INDEX 00 43:26:18
INDEX 01 43:41:34
TRACK 14 AUDIO
TITLE "Piano Septet in A major, Op. 132 - II. Andante"
PERFORMER "Linos-Ensemble"
ISRC DEB201285007
FLAGS DCP
INDEX 01 52:40:14
TRACK 15 AUDIO
TITLE "Piano Septet in A major, Op. 132 - III. Scherzo. Presto con fuoco"
PERFORMER "Linos-Ensemble"
ISRC DEB201285008
FLAGS DCP
INDEX 01 57:37:67
TRACK 16 AUDIO
TITLE "Piano Septet in A major, Op. 132 - IV. Allegretto vivace e leggierissimo"
PERFORMER "Linos-Ensemble"
ISRC DEB201285009
FLAGS DCP
INDEX 01 62:15:58



Показать сообщения:    

Текущее время: 03-Дек 12:40

Часовой пояс: UTC + 3


Вы не можете начинать темы
Вы не можете отвечать на сообщения
Вы не можете редактировать свои сообщения
Вы не можете удалять свои сообщения
Вы не можете голосовать в опросах
Вы не можете прикреплять файлы к сообщениям
Вы не можете скачивать файлы