Эрмитаж (9 выпускoв) (Михаил Трофимов) [2015-2016, Документальный цикл, познавательный, DVB, RU]


Статистика раздачи [Обновить пиров]
Размер:  7.29 GB   |    Зарегистрирован:  8 месяцев 14 дней   |    Скачан:  0 раз

Полного источника не было: Никогда

 
   
 
 
 

[Цитировать]

Эрмитаж
Дата/Год выпуска: 2015-2016
Страна: Россия
Жанр: Документальный цикл, познавательный
Продолжительность: 00:25:41
Перевод: Не требуется
Русские субтитры: нет
Оригинальная аудиодорожка: русский
Режиссер: Михаил Трофимов
Телеканал: Культура
Описание:
Продолжение рассказов Михаила Пиотровского о сокровищах Эрмитажа и его истории
09.02.2016 _ добавил выпуск: Пальмира и Античное наследие Эрмитажа,
перезаливаем

<< Эрмитаж >>

Бродили с драконами под руку луны
И чистые сердца в нем пили благодать. Искусство буддизма в Петербурге
Культура как хранитель религиозных ценностей
Малый тронный. Возвращение
Мушкетеры: 400 лет спустя
Павел Первый и Мальтийский орден
Пальмира и Античное наследие Эрмитажа
Персы
Понедельник
Сэмпл: http://multi-up.com/1070895
качество: DVB
формат: MPG
Видео: MPEG 2, 704x576, (4:3), 25 fps, 5 083 kbps
Аудио: MP2, 48 kHz, 2 ch, 256 kbps

MediaInfo

General
Complete name : C:\Понедельник.mpg
Format : MPEG-PS
File size : 1 001 MiB
Duration : 25mn 41s
Overall bit rate mode : Variable
Overall bit rate : 5 448 Kbps
Video
ID : 224 (0xE0)
Format : MPEG Video
Format version : Version 2
Format profile : Main@Main
Format settings, BVOP : Yes
Format settings, Matrix : Custom
Format settings, GOP : M=3, N=15
Format settings, picture structure : Frame
Duration : 25mn 41s
Bit rate mode : Variable
Bit rate : 5 083 Kbps
Maximum bit rate : 15.0 Mbps
Width : 720 pixels
Height : 576 pixels
Display aspect ratio : 4:3
Frame rate : 25.000 fps
Standard : PAL
Color space : YUV
Chroma subsampling : 4:2:0
Bit depth : 8 bits
Scan type : Interlaced
Scan order : Top Field First
Compression mode : Lossy
Bits/(Pixel*Frame) : 0.490
Time code of first frame : 00:00:00:00
Time code source : Group of pictures header
GOP, Open/Closed : Closed
Stream size : 934 MiB (93%)
Audio
ID : 192 (0xC0)
Format : MPEG Audio
Format version : Version 1
Format profile : Layer 2
Duration : 25mn 41s
Bit rate mode : Constant
Bit rate : 256 Kbps
Channel(s) : 2 channels
Sampling rate : 48.0 KHz
Compression mode : Lossy
Delay relative to video : 1ms
Stream size : 47.1 MiB (5%)

Скриншоты

[teatrix.ru].t22432.torrent 
Торрент: Зарегистрирован [ 2016-03-20 12:34 ] · 1FF070157996CE0C9D00EE2FFF362B49A31A006D

Скачать .torrent

Скачать

38 KB

Статус: проверено
Скачан: 0 раз
Размер: 7.29 GB
terms.php



Быстрый ответ

Имя:

      
Для отправки сообщений необходимо включить JavaScript
Показать сообщения:    

Текущее время: 04-Дек 09:07

Часовой пояс: UTC + 3


Вы можете начинать темы
Вы можете отвечать на сообщения
Вы не можете редактировать свои сообщения
Вы не можете удалять свои сообщения
Вы не можете голосовать в опросах
Вы не можете прикреплять файлы к сообщениям
Вы можете скачивать файлы