Закон Ирода / La Ley de Herodes (Луис Эстрада / Luis Estrada) [1999, Мексика, черная комедия, DVDRip] VO


Статистика раздачи [Обновить пиров]
Размер:  708 MB   |    Зарегистрирован:  8 месяцев 18 дней   |    Скачан:  0 раз

Полного источника не было: Никогда

 
   
 
 
 

[Цитировать]

Закон Ирода / La Ley de Herodes
Страна: Мексика
Жанр: черная комедия
Год выпуска: 1999
Продолжительность: 02:02:52
Перевод: Одноголосый закадровый
Cубтитры: нет
Оригинальная аудиодорожка: нет
Режиссер: Луис Эстрада / Luis Estrada
В ролях: Дамиан Алькасар, Педро Армендарис, Делиа Касанова, Хуан Карлос Коломбо, Алекс Кокс
Описание: После того, как мэр маленькой деревушки был убит разозленными жителями, молодой член партии по имени Хуан Варгас назначен временным мэром. Сначала он пытается работать на благо деревни, но недостаток средств не позволяет ему развернуться. Попросив помощи у своего босса, он получает том конституции Мексики и револьвер - ему сказано, что единственный закон - это закон Ирода: "поимей их, иначе поимеют тебя".
Доп. информация: Фильм был запрещен в течение нескольких лет. Как только начались съемки, правительство Мексики было недовольно - ведь фильм критикует правительство страны. Но создатели не сдавались - тема дошла до газет, так что фильм пришлось таки выпустить на свет - чтобы избежать слухов о цензуре в Мексике.
Внимание! Ненормативная Лексика
Сэмпл: http://multi-up.com/1071067
Качество видео: DVDRip
Формат видео: AVI
Видео: XVID, 608x336, 16:9, 23.976 fps, 669 Kbps
Аудио: MP3, 48.0 KHz, 128 Kbps, 2 channels, русский, перевод и озвучка PiterVV с использованием субтитров dusterio

MediaInfo

General
Complete name : H:\Большой день\Закон Ирода\закон ирода PiterVV.avi
Format : AVI
Format/Info : Audio Video Interleave
File size : 708 MiB
Duration : 2h 2mn
Overall bit rate : 806 Kbps
Writing application : VirtualDubMod 1.5.10.2 (build 2540/release)
Writing library : VirtualDubMod build 2540/release
Video
ID : 0
Format : MPEG-4 Visual
Format profile : Advanced Simple@L5
Format settings, BVOP : 1
Format settings, QPel : No
Format settings, GMC : No warppoints
Format settings, Matrix : Custom
Codec ID : XVID
Codec ID/Hint : XviD
Duration : 2h 2mn
Bit rate : 669 Kbps
Width : 608 pixels
Height : 336 pixels
Display aspect ratio : 16:9
Frame rate : 23.976 fps
Color space : YUV
Chroma subsampling : 4:2:0
Bit depth : 8 bits
Scan type : Progressive
Compression mode : Lossy
Bits/(Pixel*Frame) : 0.137
Stream size : 588 MiB (83%)
Writing library : XviD 1.2.0.dev47 (UTC 2006-11-01)
Audio
ID : 1
Format : MPEG Audio
Format version : Version 1
Format profile : Layer 3
Codec ID : 55
Codec ID/Hint : MP3
Duration : 2h 2mn
Bit rate mode : Constant
Bit rate : 128 Kbps
Channel(s) : 2 channels
Sampling rate : 48.0 KHz
Compression mode : Lossy
Stream size : 112 MiB (16%)
Alignment : Aligned on interleaves
Interleave, duration : 42 ms (1.00 video frame)
Interleave, preload duration : 504 ms
Writing library : LAME3.99.5
Language : Espanol

Скриншоты

[teatrix.ru].t22436.torrent 
Торрент: Зарегистрирован [ 2016-03-20 12:34 ] · F487C814877D9E715BB69E473F92AE7E7F64DDC3

Скачать .torrent

Скачать

14 KB

Статус: проверено
Скачан: 0 раз
Размер: 708 MB
terms.php



Быстрый ответ

Имя:

      
Для отправки сообщений необходимо включить JavaScript
Показать сообщения:    

Текущее время: 08-Дек 10:57

Часовой пояс: UTC + 3


Вы можете начинать темы
Вы можете отвечать на сообщения
Вы не можете редактировать свои сообщения
Вы не можете удалять свои сообщения
Вы не можете голосовать в опросах
Вы не можете прикреплять файлы к сообщениям
Вы можете скачивать файлы