Театр / Быть Джулией / Being Julia (Иштван Сабо / Istvan Szabo) [2004, США, Канада, Венгрия, драма, экранизация, DVDRip-AVC] MVO + Sub Rus + Original Eng


Статистика раздачи [Обновить пиров]
Размер:  2.18 GB   |    Зарегистрирован:  8 месяцев 15 дней   |    Скачан:  0 раз

Полного источника не было: Никогда

 
   
 
 
 

[Цитировать]

Театр / Being Julia- Страна: США, Канада, Венгрия
Жанр: драма, экранизация
Год выпуска: 2004
Продолжительность: 01:39:41
Перевод: Профессиональный (многоголосый закадровый)
Оригинальная аудиодорожка: английский
Cубтитры: русские-Режиссер: Иштван Сабо / István Szabó-В ролях:
Аннетт Бенинг, Джереми Айронс, Шон Эванс, Тереза Чёрчер, Брюс Гринвуд, Майкл Гэмбон, Мириам Маргулис, Ли Лоусон, Джульет Стивенсон, Розмари Харрис
Описание:
Экранизация романа Сомерсета Моэма "Театр".-Исходник | Сэмпл | Кинопоиск-Качество видео: DVDRip-AVC / благодарю Гость за исходный DVD.
Формат видео: MKV
Видео: x264 (High@L4.1); 720@768x574, Display aspect ratio 1.338:1, 25.000 fps, 2233 Kbps
Аудио 1: AC-3; 16 bit 48 Khz; 5.1ch 448 Kbps; CBR | MVO
Аудио 2: AC-3; 16 bit 48 Khz; 5.1ch 448 Kbps; CBR | Original
Формат субтитров: softsub (SRT)

MediaInfo

-

x264 log

avs [info]: 720x574p 16:15 @ 25/1 fps (cfr)
x264 [info]: using SAR=16/15
x264 [info]: using cpu capabilities: MMX2 SSE2Fast SSSE3 SSE4.2
x264 [info]: profile High, level 4.1
x264 [info]: frame I:1081 Avg QP:15.98 size: 48829
x264 [info]: frame P:32029 Avg QP:18.17 size: 24967
x264 [info]: frame B:116415 Avg QP:20.65 size: 7014
x264 [info]: consecutive B-frames: 1.7% 2.5% 10.5% 14.4% 11.8% 55.1% 3.5% 0.5%
x264 [info]: mb I I16..4: 3.0% 88.4% 8.7%
x264 [info]: mb P I16..4: 0.5% 15.2% 0.8% P16..4: 31.3% 35.1% 13.4% 1.4% 0.1% skip: 2.2%
x264 [info]: mb B I16..4: 0.1% 1.2% 0.1% B16..8: 33.9% 19.0% 2.9% direct: 8.6% skip:34.2% L0:35.7% L1:34.6% BI:29.8%
x264 [info]: 8x8 transform intra:91.2% inter:67.1%
x264 [info]: direct mvs spatial:99.2% temporal:0.8%
x264 [info]: coded y,uvDC,uvAC intra: 93.1% 89.1% 64.4% inter: 30.2% 29.5% 12.8%
x264 [info]: i16 v,h,dc,p: 15% 9% 6% 70%
x264 [info]: i8 v,h,dc,ddl,ddr,vr,hd,vl,hu: 14% 9% 10% 9% 11% 13% 10% 13% 12%
x264 [info]: i4 v,h,dc,ddl,ddr,vr,hd,vl,hu: 15% 7% 5% 8% 16% 17% 12% 11% 9%
x264 [info]: i8c dc,h,v,p: 37% 23% 23% 18%
x264 [info]: Weighted P-Frames: Y:2.8% UV:0.7%
x264 [info]: ref P L0: 40.9% 11.1% 18.9% 5.1% 5.7% 3.4% 3.5% 1.6% 1.8% 1.3% 1.5% 1.1% 1.2% 0.9% 1.1% 0.7%
x264 [info]: ref B L0: 81.1% 11.3% 2.5% 1.2% 0.9% 0.7% 0.5% 0.3% 0.3% 0.3% 0.2% 0.2% 0.2% 0.1% 0.1%
x264 [info]: ref B L1: 96.1% 3.9%
x264 [info]: kb/s:2232.43
x264 [total]: encoded 149525 frames, 13.17 fps, 2232.43 kb/s
-General
Unique ID : 195104197610762556170951089429546254809 (0x92C7B39F08C9879E83F376CE03A3C1D9)
Complete name : Театр.2004.mkv
Format : Matroska
Format version : Version 2
File size : 2.18 GiB
Duration : 1h 39mn
Overall bit rate : 3 131 Kbps
Movie name : «Being Julia»
Encoded date : UTC 2015-10-12 19:01:42
Writing application : mkvmerge v5.8.0 ('No Sleep / Pillow') built on Sep 2 2012 15:37:04
Writing library : libebml v1.2.3 + libmatroska v1.3.0
Comment : DVDRip-AVC
Originally released : October 7th 2015
Encoded by : george$t®
Video
ID : 1
Format : AVC
Format/Info : Advanced Video Codec
Format profile : High@L4.1
Format settings, CABAC : Yes
Format settings, ReFrames : 16 frames
Codec ID : V_MPEG4/ISO/AVC
Duration : 1h 39mn
Bit rate : 2 233 Kbps
Width : 720 pixels
Height : 574 pixels
Display aspect ratio : 4:3
Frame rate mode : Constant
Frame rate : 25.000 fps
Color space : YUV
Chroma subsampling : 4:2:0
Bit depth : 8 bits
Scan type : Progressive
Bits/(Pixel*Frame) : 0.216
Stream size : 1.51 GiB (69%)
Title : Being Julia. 2004
Writing library : x264 core 148 r2579kMod 73ae2d1
Encoding settings : cabac=1 / ref=16 / deblock=1:-2:-1 / analyse=0x3:0x133 / me=umh / subme=11 / psy=1 / fade_compensate=0.00 / psy_rd=1.00:0.10 / mixed_ref=1 / me_range=32 / chroma_me=1 / trellis=2 / 8x8dct=1 / cqm=0 / deadzone=21,11 / fast_pskip=0 / chroma_qp_offset=-3 / threads=12 / lookahead_threads=2 / sliced_threads=0 / nr=0 / decimate=0 / interlaced=0 / bluray_compat=0 / constrained_intra=0 / fgo=0 / bframes=7 / b_pyramid=2 / b_adapt=2 / b_bias=0 / direct=3 / weightb=1 / open_gop=0 / weightp=2 / keyint=250 / keyint_min=25 / scenecut=40 / intra_refresh=0 / rc_lookahead=40 / rc=2pass / mbtree=0 / bitrate=2233 / ratetol=1.0 / qcomp=0.55 / qpmin=0 / qpmax=69 / qpstep=4 / cplxblur=20.0 / qblur=0.5 / vbv_maxrate=50000 / vbv_bufsize=62500 / nal_hrd=none / filler=0 / ip_ratio=1.25 / pb_ratio=1.30 / aq=2:0.50
Language : English
Default : Yes
Forced : No
Color primaries : BT.601 PAL
Transfer characteristics : BT.470 System B, BT.470 System G
Matrix coefficients : BT.601
Color range : Limited
Audio #1
ID : 2
Format : AC-3
Format/Info : Audio Coding 3
Mode extension : CM (complete main)
Format settings, Endianness : Big
Codec ID : A_AC3
Duration : 1h 39mn
Bit rate mode : Constant
Bit rate : 448 Kbps
Channel(s) : 6 channels
Channel positions : Front: L C R, Side: L R, LFE
Sampling rate : 48.0 KHz
Bit depth : 16 bits
Compression mode : Lossy
Stream size : 319 MiB (14%)
Title : MVO: AC-3; 16 bit 48 Khz; 5.1ch 448 Kbps; CBR
Language : Russian
Default : Yes
Forced : No
Audio #2
ID : 3
Format : AC-3
Format/Info : Audio Coding 3
Mode extension : CM (complete main)
Format settings, Endianness : Big
Codec ID : A_AC3
Duration : 1h 39mn
Bit rate mode : Constant
Bit rate : 448 Kbps
Channel(s) : 6 channels
Channel positions : Front: L C R, Side: L R, LFE
Sampling rate : 48.0 KHz
Bit depth : 16 bits
Compression mode : Lossy
Stream size : 319 MiB (14%)
Title : Original: AC-3; 16 bit 48 Khz; 5.1ch 448 Kbps; CBR | eng
Language : English
Default : No
Forced : No
Text
ID : 4
Format : UTF-8
Codec ID : S_TEXT/UTF8
Codec ID/Info : UTF-8 Plain Text
Title : Субтитры русские
Language : Russian
Default : No
Forced : No
Menu
00:00:00.000 : en:Chapter 1
00:14:57.280 : en:Chapter 2
00:29:12.400 : en:Chapter 3
00:44:59.040 : en:Chapter 4
00:59:45.440 : en:Chapter 5
01:14:51.320 : en:Chapter 6

Скриншоты

vs. source:vs. dvdrip:
[teatrix.ru].t22437.torrent 
Торрент: Зарегистрирован [ 2016-03-20 12:34 ] · 52AFA87635027352792C495FEA8D2EF8641780E2

Скачать .torrent

Скачать

11 KB

Статус: проверено
Скачан: 0 раз
Размер: 2.18 GB
terms.php



Быстрый ответ

Имя:

      
Для отправки сообщений необходимо включить JavaScript
Показать сообщения:    

Текущее время: 05-Дек 05:31

Часовой пояс: UTC + 3


Вы можете начинать темы
Вы можете отвечать на сообщения
Вы не можете редактировать свои сообщения
Вы не можете удалять свои сообщения
Вы не можете голосовать в опросах
Вы не можете прикреплять файлы к сообщениям
Вы можете скачивать файлы