(Opera, Vocal) Raoul Jobin - Arias [sung in French] (Tenor Operatic Scenes by Gounod, Massenet, Berlioz, Meyerbeer, Bizet, Offenbach, Puccini, Wagner), 1946-1948 - Studio recordings / 2001, FLAC (tracks+.cue), lossless


 

[Цитировать]

Raoul Jobin - Arias
Жанр: Opera, Vocal
Страна-производитель диска: Австрия
Год издания диска: 2001
Издатель (лейбл): Preiser Records
Дата записи: 1946-1948
Аудиокодек: FLAC
Тип рипа: tracks+.cue
Битрейт аудио: lossless
Продолжительность: 70:31
Источник: релизер (Guillermo)
Исполнители:
Raoul Jobin, tenor,
Wilfred Pelletier, Conductor (1-6),
George Sebastian, Conductor (7, 8),
Andre Cluytens, Conductor (9-13, 16-19),
Louis Fourestier, Conductor (14,15),
Metropolitan Opera Orchestra (1-6),
Orchestra of Opera-Comique.
Studio recordings made for Columbia, 1946-1948.

Лог создания рипа

Exact Audio Copy V1.0 beta 3 from 29. August 2011
EAC extraction logfile from 11. October 2015, 17:17
Artista desconocido / Título desconocido
Used drive : HL-DT-STDVDRAM GH24NSC0 Adapter: 3 ID: 0
Read mode : Secure
Utilize accurate stream : Yes
Defeat audio cache : Yes
Make use of C2 pointers : No
Read offset correction : 6
Overread into Lead-In and Lead-Out : No
Fill up missing offset samples with silence : Yes
Delete leading and trailing silent blocks : No
Null samples used in CRC calculations : Yes
Used interface : Native Win32 interface for Win NT & 2000
Gap handling : Appended to previous track
Used output format : User Defined Encoder
Selected bitrate : 768 kBit/s
Quality : High
Add ID3 tag : No
Command line compressor : C:\Program Files (x86)\Exact Audio Copy\FLAC\FLAC.EXE
Additional command line options : -8 -V -T "ARTIST=%artist%" -T "TITLE=%title%" -T "ALBUM=%albumtitle%" -T "DATE=%year%" -T "TRACKNUMBER=%tracknr%" -T "GENRE=%genre%" -T "PERFORMER=%albuminterpret%" -T "COMPOSER=%composer%" %haslyrics%--tag-from-file=LYRICS="%lyricsfile%"%haslyrics% -T "ALBUMARTIST=%albumartist%" -T "DISCNUMBER=%cdnumber%" -T "TOTALDISCS=%totalcds%" -T "TOTALTRACKS=%numtracks%" -T "COMMENT=%comment%" %source% -o %dest%
TOC of the extracted CD
Track | Start | Length | Start sector | End sector
---------------------------------------------------------
1 | 0:00.00 | 4:03.52 | 0 | 18276
2 | 4:03.52 | 3:41.38 | 18277 | 34889
3 | 7:45.15 | 3:09.22 | 34890 | 49086
4 | 10:54.37 | 4:16.08 | 49087 | 68294
5 | 15:10.45 | 4:06.30 | 68295 | 86774
6 | 19:17.00 | 3:04.45 | 86775 | 100619
7 | 22:21.45 | 3:24.20 | 100620 | 115939
8 | 25:45.65 | 8:00.02 | 115940 | 151941
9 | 33:45.67 | 4:23.45 | 151942 | 171711
10 | 38:09.37 | 2:53.60 | 171712 | 184746
11 | 41:03.22 | 1:56.35 | 184747 | 193481
12 | 42:59.57 | 1:48.18 | 193482 | 201599
13 | 44:48.00 | 6:28.12 | 201600 | 230711
14 | 51:16.12 | 4:25.22 | 230712 | 250608
15 | 55:41.34 | 2:51.01 | 250609 | 263434
16 | 58:32.35 | 3:28.40 | 263435 | 279074
17 | 62:01.00 | 2:41.00 | 279075 | 291149
18 | 64:42.00 | 2:14.45 | 291150 | 301244
19 | 66:56.45 | 2:34.47 | 301245 | 312841
Track 1
Filename f:\Users\Guillermo\Desktop\EAC convertidos\01 Pista01.wav
Pre-gap length 0:00:02.00
Peak level 98.8 %
Extraction speed 1.6 X
Track quality 100.0 %
Test CRC EDD23D99
Copy CRC EDD23D99
Copy OK
Track 2
Filename f:\Users\Guillermo\Desktop\EAC convertidos\02 Pista02.wav
Pre-gap length 0:00:04.53
Peak level 79.4 %
Extraction speed 1.7 X
Track quality 100.0 %
Test CRC 7ED0D0B0
Copy CRC 7ED0D0B0
Copy OK
Track 3
Filename f:\Users\Guillermo\Desktop\EAC convertidos\03 Pista03.wav
Pre-gap length 0:00:04.57
Peak level 98.8 %
Extraction speed 1.5 X
Track quality 99.8 %
Test CRC 27B9F6DC
Copy CRC 27B9F6DC
Copy OK
Track 4
Filename f:\Users\Guillermo\Desktop\EAC convertidos\04 Pista04.wav
Pre-gap length 0:00:04.56
Peak level 93.5 %
Extraction speed 2.0 X
Track quality 100.0 %
Test CRC 8676DA9E
Copy CRC 8676DA9E
Copy OK
Track 5
Filename f:\Users\Guillermo\Desktop\EAC convertidos\05 Pista05.wav
Pre-gap length 0:00:04.53
Peak level 91.0 %
Extraction speed 2.1 X
Track quality 100.0 %
Test CRC 1790F1A6
Copy CRC 1790F1A6
Copy OK
Track 6
Filename f:\Users\Guillermo\Desktop\EAC convertidos\06 Pista06.wav
Pre-gap length 0:00:04.57
Peak level 99.8 %
Extraction speed 2.1 X
Track quality 100.0 %
Test CRC F9535513
Copy CRC F9535513
Copy OK
Track 7
Filename f:\Users\Guillermo\Desktop\EAC convertidos\07 Pista07.wav
Pre-gap length 0:00:04.53
Peak level 86.8 %
Extraction speed 1.9 X
Track quality 99.8 %
Test CRC 12AB610D
Copy CRC 12AB610D
Copy OK
Track 8
Filename f:\Users\Guillermo\Desktop\EAC convertidos\08 Pista08.wav
Pre-gap length 0:00:03.57
Peak level 99.9 %
Extraction speed 2.7 X
Track quality 100.0 %
Test CRC 9E40E286
Copy CRC 9E40E286
Copy OK
Track 9
Filename f:\Users\Guillermo\Desktop\EAC convertidos\09 Pista09.wav
Pre-gap length 0:00:05.56
Peak level 95.2 %
Extraction speed 2.7 X
Track quality 100.0 %
Test CRC 5D89B764
Copy CRC 5D89B764
Copy OK
Track 10
Filename f:\Users\Guillermo\Desktop\EAC convertidos\10 Pista10.wav
Pre-gap length 0:00:03.56
Peak level 96.6 %
Extraction speed 2.5 X
Track quality 100.0 %
Test CRC FE1BB6FB
Copy CRC FE1BB6FB
Copy OK
Track 11
Filename f:\Users\Guillermo\Desktop\EAC convertidos\11 Pista11.wav
Pre-gap length 0:00:03.56
Peak level 89.9 %
Extraction speed 2.3 X
Track quality 100.0 %
Test CRC FEB08982
Copy CRC FEB08982
Copy OK
Track 12
Filename f:\Users\Guillermo\Desktop\EAC convertidos\12 Pista12.wav
Pre-gap length 0:00:03.56
Peak level 98.8 %
Extraction speed 2.3 X
Track quality 100.0 %
Test CRC D58B3B5F
Copy CRC D58B3B5F
Copy OK
Track 13
Filename f:\Users\Guillermo\Desktop\EAC convertidos\13 Pista13.wav
Pre-gap length 0:00:03.54
Peak level 77.0 %
Extraction speed 2.8 X
Track quality 99.9 %
Test CRC 961BB0E0
Copy CRC 961BB0E0
Copy OK
Track 14
Filename f:\Users\Guillermo\Desktop\EAC convertidos\14 Pista14.wav
Pre-gap length 0:00:05.56
Peak level 100.0 %
Extraction speed 3.1 X
Track quality 100.0 %
Test CRC 4E4CE0C8
Copy CRC 4E4CE0C8
Copy OK
Track 15
Filename f:\Users\Guillermo\Desktop\EAC convertidos\15 Pista15.wav
Pre-gap length 0:00:04.56
Peak level 100.0 %
Extraction speed 2.9 X
Track quality 100.0 %
Test CRC 4193C277
Copy CRC 4193C277
Copy OK
Track 16
Filename f:\Users\Guillermo\Desktop\EAC convertidos\16 Pista16.wav
Pre-gap length 0:00:04.57
Peak level 97.6 %
Extraction speed 3.1 X
Track quality 100.0 %
Test CRC 889F1A28
Copy CRC 889F1A28
Copy OK
Track 17
Filename f:\Users\Guillermo\Desktop\EAC convertidos\17 Pista17.wav
Pre-gap length 0:00:04.57
Peak level 100.0 %
Extraction speed 3.0 X
Track quality 100.0 %
Test CRC 34335DB0
Copy CRC 34335DB0
Copy OK
Track 18
Filename f:\Users\Guillermo\Desktop\EAC convertidos\18 Pista18.wav
Pre-gap length 0:00:04.57
Peak level 63.0 %
Extraction speed 2.8 X
Track quality 100.0 %
Test CRC 3F24157A
Copy CRC 3F24157A
Copy OK
Track 19
Filename f:\Users\Guillermo\Desktop\EAC convertidos\19 Pista19.wav
Pre-gap length 0:00:03.53
Peak level 79.3 %
Extraction speed 3.0 X
Track quality 100.0 %
Test CRC A79A3AC7
Copy CRC A79A3AC7
Copy OK
No errors occurred
End of status report
==== Log checksum E89B77467A23E41CDF5B675B7B0CF23A086CF41865BDD4D68DEDBA4AB97FA88A ====

Содержание индексной карты (.CUE)

REM DISCID 12104B13
REM COMMENT "ExactAudioCopy v1.0b3"
FILE "01 Pista01.wav" WAVE
TRACK 01 AUDIO
INDEX 01 00:00:00
TRACK 02 AUDIO
INDEX 00 03:59:12
FILE "02 Pista02.wav" WAVE
INDEX 01 00:00:00
TRACK 03 AUDIO
INDEX 00 03:36:70
FILE "03 Pista03.wav" WAVE
INDEX 01 00:00:00
TRACK 04 AUDIO
INDEX 00 03:04:55
FILE "04 Pista04.wav" WAVE
INDEX 01 00:00:00
TRACK 05 AUDIO
INDEX 00 04:11:43
FILE "05 Pista05.wav" WAVE
INDEX 01 00:00:00
TRACK 06 AUDIO
INDEX 00 04:01:62
FILE "06 Pista06.wav" WAVE
INDEX 01 00:00:00
TRACK 07 AUDIO
INDEX 00 03:00:05
FILE "07 Pista07.wav" WAVE
INDEX 01 00:00:00
TRACK 08 AUDIO
INDEX 00 03:20:52
FILE "08 Pista08.wav" WAVE
INDEX 01 00:00:00
TRACK 09 AUDIO
INDEX 00 07:54:35
FILE "09 Pista09.wav" WAVE
INDEX 01 00:00:00
TRACK 10 AUDIO
INDEX 00 04:20:03
FILE "10 Pista10.wav" WAVE
INDEX 01 00:00:00
TRACK 11 AUDIO
INDEX 00 02:50:18
FILE "11 Pista11.wav" WAVE
INDEX 01 00:00:00
TRACK 12 AUDIO
INDEX 00 01:52:68
FILE "12 Pista12.wav" WAVE
INDEX 01 00:00:00
TRACK 13 AUDIO
INDEX 00 01:44:52
FILE "13 Pista13.wav" WAVE
INDEX 01 00:00:00
TRACK 14 AUDIO
INDEX 00 06:22:45
FILE "14 Pista14.wav" WAVE
INDEX 01 00:00:00
TRACK 15 AUDIO
INDEX 00 04:20:55
FILE "15 Pista15.wav" WAVE
INDEX 01 00:00:00
TRACK 16 AUDIO
INDEX 00 02:46:33
FILE "16 Pista16.wav" WAVE
INDEX 01 00:00:00
TRACK 17 AUDIO
INDEX 00 03:23:72
FILE "17 Pista17.wav" WAVE
INDEX 01 00:00:00
TRACK 18 AUDIO
INDEX 00 02:36:32
FILE "18 Pista18.wav" WAVE
INDEX 01 00:00:00
TRACK 19 AUDIO
INDEX 00 02:11:05
FILE "19 Pista19.wav" WAVE
INDEX 01 00:00:00

Треклист

1. La Damnation de Faust: Nature immense (1947)
2. Roméo et Juliette: Ah! leve-toi, soleil (1947)
3. L' Africaine: O paradis (1947)
4. Hérodiade: Adieu donc (1947)
5. Manon: Ah! fuyez, douce image (1947)
6. Werther: Pourqoui me reveiller? (1947)
Carmen (1946):
7. La fleur que tu m'avais jetee
8. C'est toi?
Les contes d'Hoffmann (1948):
9. Il etait une fois
10. Allons! courage et confiance
11. L'amour dans le bruit et le vin
12. O Dieu de quelle ivresse
13. C'est une chanson d'amour
14. Lohengrin: Aux bords lointains (1948)
15. Siegfried: Air de la forge (1948)
16. Carmen: La fleur que tu m'avais jetee (1948)
17. Werther: J'aurais sur ma poitrine (1948)
Tosca (1948):
18. O de beautes egales!
19. Le ciel luisait d'etoiles



Показать сообщения:    

Текущее время: 04-Дек 13:16

Часовой пояс: UTC + 3


Вы не можете начинать темы
Вы не можете отвечать на сообщения
Вы не можете редактировать свои сообщения
Вы не можете удалять свои сообщения
Вы не можете голосовать в опросах
Вы не можете прикреплять файлы к сообщениям
Вы не можете скачивать файлы