Сказки Пушкина. Версия авангардиста (Сергей Ильин-Козловский, Риша Васильева) [2015 г., авангард, SATRip] Государственный театр Наций


Статистика раздачи [Обновить пиров]
Размер:  698 MB   |    Зарегистрирован:  8 месяцев 20 дней   |    Скачан:  1 раз

Полного источника не было: 1 месяц 9 дней

 
   
 
 
 

[Цитировать]

Сказки Пушкина. Версия авангардиста Название театра: Государственный театр Наций.
Год выпуска: 2015.
Жанр: авангард.
Продолжительность: 00:52:57.
Режиссеры: Сергей Ильин-Козловский, Риша Васильева.
При участии Евгения Миронова, Роберта Уилсона, группы CocoRosie, Дарьи Мороз, Романа Должанского и др.
О спектакле:
Программа рассказывает о постановке спектакля "Сказки Пушкина" в театре Наций.
Режиссер Роберт Уилсон - признанный классик авангарда, работать с которым почитают за честь такие мировые звезды, как Михаил Барышников и Изабель Юппер, Леди Гага и Уильям Дефо. Его с восторгом принимали в итальянской Ла Скала и нью-йоркской Метрополитен Опера. Роберт Уилсон поставил самый длинный в мире спектакль "Гора Ка и сторожевая терраса", немую оперу "Взгляд глухого" и еще более 50 театральных экспериментов, которые заслужили ему славу главного режиссера современности.
Он приехал в Россию, чтобы на сцене Театра Наций вместе с его художественным руководителем Евгением Мироновым взяться за постановку "Сказок Пушкина". Этот масштабный творческий проект, история которого началась еще 10 лет назад, станет новой страницей в истории театра в нашей стране. Музыку для спектакля написал американский фрик-фолк дуэт CocoRosie, покоривший мир своим нестандартным и очевидно самобытным звучанием.
Непосредственная работа над спектаклем велась более года и сразу на двух континентах: американский режиссер, европейская творческая команда, русские актеры. Столкновение классики и современности, визуальная изощренность и пушкинская глубина, спектакль, который представляет собой что-то среднее между цирком, пантомимой, современным балетом, мюзиклом и русским площадным балаганом. Зрителям предоставляется уникальная возможность заглянуть за кулисы Театра Наций и своими глазами увидеть, как создавался шедевр, узнать, чем живет Театр и каким образом был осуществлен этот масштабный проект.

Дополнительная информация:
Страна: Россия .
Выпущено: © Канал ОРТ.
Автор сценария: Сергей Ильин-Козловский.
Супервайзер графики и визуальных эффектов: Владислав Смаков.
Супервайзер пост-продакшен: Ярослав Пунинский.
Художник: Екатерина Джагарова.
Оператор-постановщик: Владислав Айнет.

Релиз

Качество видео:...SATRip
Формат:.................AVI
Видео:..688x464 (1.48:1), 25 fps, XviD MPEG-4 ~1705 kbps avg, 0.21 bit/pixel
Аудио:..48 kHz, MPEG Layer 3, 2 ch, ~128.00 kbps avg

Отчет Media Info

Общее
Полное имя : Skazki.Pushkina.versiya.avangardista.2015.XviD.SATRip.fenixclub.avi
Format : AVI
Format/Info : Audio Video Interleave
File size : 698 MiB
Duration : 52mn 56s
Overall bit rate : 1 843 Kbps
Writing application : VirtualDubModRus 1.5.10.2 (build 2542/release)
Writing library : VirtualDub build 32842/release
Video
ID : 0
Format : MPEG-4 Visual
Format profile : Advanced Simple@L5
Format settings, BVOP : 2
Format settings, QPel : No
Format settings, GMC : No warppoints
Format settings, Matrix : Default (MPEG)
Codec ID : XVID
Codec ID/Hint : XviD
Duration : 52mn 56s
Bit rate : 1 705 Kbps
Width : 688 pixels
Height : 464 pixels
Display aspect ratio : 3:2
Frame rate : 25.000 fps
Color space : YUV
Chroma subsampling : 4:2:0
Bit depth : 8 bits
Scan type : Progressive
Compression mode : Lossy
Bits/(Pixel*Frame) : 0.214
Stream size : 646 MiB (93%)
Writing library : XviD 73
Audio
ID : 1
Format : MPEG Audio
Format version : Version 1
Format profile : Layer 3
Mode : Joint stereo
Mode extension : MS Stereo
Codec ID : 55
Codec ID/Hint : MP3
Duration : 52mn 56s
Bit rate mode : Constant
Bit rate : 128 Kbps
Channel(s) : 2 channels
Sampling rate : 48.0 KHz
Compression mode : Lossy
Stream size : 48.5 MiB (7%)
Alignment : Split accross interleaves
Interleave, duration : 40 ms (1.00 video frame)
Interleave, preload duratio : 500 ms.

Скриншоты


Альтернативный хост


[teatrix.ru].t22441.torrent 
Торрент: Зарегистрирован [ 2016-03-20 12:34 ] · 8A51A5E6DEB85B2F312AC86C9201C2C74E519371

Скачать .torrent

Скачать

14 KB

Статус: проверено
Скачан: 1 раз
Размер: 698 MB
terms.php



Быстрый ответ

Имя:

      
Для отправки сообщений необходимо включить JavaScript
Показать сообщения:    

Текущее время: 10-Дек 09:59

Часовой пояс: UTC + 3


Вы можете начинать темы
Вы можете отвечать на сообщения
Вы не можете редактировать свои сообщения
Вы не можете удалять свои сообщения
Вы не можете голосовать в опросах
Вы не можете прикреплять файлы к сообщениям
Вы можете скачивать файлы