(Opera) Mercadante - La Vestale (Alcala, Bienkowska, Damiani, Denti, Elgr - Wexford Festival Opera Chorus / Cracow Philharmonic Orchestra, Arrivabeni) - 2005, APE (image+.cue) lossless


 

[Цитировать]

Saverio Mercadante - La Vestale
Жанр: Opera
Страна-производитель диска: EU
Год издания диска: 2005
Издатель (лейбл): Marco Polo
Номер по каталогу: 8.225310-11
Дата записи: 2004
Аудиокодек: APE
Тип рипа: image+.cue
Битрейт аудио: lossless
Продолжительность: 38'23+58'42
Источник: собственный рип
Наличие сканов в содержимом раздачи: да
Треклист:

CD1

1. Act I: Prelude and Morning Prayer
2. Act I: Recitative after the Prayer - Si, ministre dell’ara
3. Act I; Scene and Duet - Ingiusto ciel... Di conforto un raggio solo
4. Act I: Triumphal Chorus - Plauso al Duce vincitore
5. Act I: Scene and Largo of the Pezzo Concertato - Padre! – Decio, m’abbraccia...
6. Act I: Continuation and Stretta of the Pezzo Concertato - Si compia il rito
7. Act I: Scene and Duet, Finale I - Publio, mi sei tu vero amico... E la patria, e Roma insano!

CD1

1. Act II: Introduction and Prayer - Se fino al cielo ascendere
2. Act II: Scene and Duet - A te commetto la sacra face... No, l’acciar non fu spietato
3. Act II: Scene and Aria - Ah, il foco – E spento... Versate amare lagrime
4. Act II: Scene before the Act II Finale - Sull’attonita fronte
5. Act II: Continuation and Largo of Finale II - Consoli, piu s'aspetta
6. Act II: Continuation and Stretta of Finale II - Padre! – Di Roma un Console figli non ha
7. Act III: Chorus, Scene and Aria - Il Console ci ascolti... Se non potra la vittima
8. Act III: Chorus before the Duet - Ah, questa vittima
9. Act III: Scene and Duet, Finale III - Ove tratta son’io... Ah! mira gl’incensi
Исполнители:
Saverio Mercadante - La Vestale
Tragedia Lirica in three acts
Libretto by Salvadore Cammarano influenced by Victor-Joseph Étienne de Jouy's libretto for Spontini
Doriana Milazzo, soprano
Dante Alcala, tenor
Agata Bienkowska, mezzo-soprano
Davide Damiani, bariton
Danna Glaser, soprano
Andrea Patucelli, bass-bariton
Ladislav Elgr, tenor
Wexford Festival Opera Chorus
Cracow Philharmonic Orchestra
Paolo Arrivabeni, Conductor

Лог создания рипа

CD1

Exact Audio Copy V1.0 beta 6 from 9. April 2015
EAC extraction logfile from 19. September 2015, 1:05
Milazzo, Alcala, Bienkowska - Wexford Festival Opera, Arrivabeni / Mercadante - la Vestale, Arrivabeni CD1
Used drive : TSSTcorpCDDVDW SE-208AB Adapter: 1 ID: 2
Read mode : Secure
Utilize accurate stream : Yes
Defeat audio cache : Yes
Make use of C2 pointers : No
Read offset correction : 6
Overread into Lead-In and Lead-Out : No
Fill up missing offset samples with silence : Yes
Delete leading and trailing silent blocks : No
Null samples used in CRC calculations : Yes
Used interface : Native Win32 interface for Win NT & 2000
Used output format : Monkey's Audio Lossless Encoder
Selected bitrate : High Lossless Compression
Quality : High
Add ID3 tag : Yes
Command line compressor : C:\Program Files (x86)\Exact Audio Copy\MAC\MAC.exe
TOC of the extracted CD
Track | Start | Length | Start sector | End sector
---------------------------------------------------------
1 | 0:00.00 | 4:36.50 | 0 | 20749
2 | 4:36.50 | 2:08.00 | 20750 | 30349
3 | 6:44.50 | 10:05.69 | 30350 | 75793
4 | 16:50.44 | 3:40.30 | 75794 | 92323
5 | 20:30.74 | 6:33.29 | 92324 | 121827
6 | 27:04.28 | 4:40.58 | 121828 | 142885
7 | 31:45.11 | 6:35.64 | 142886 | 172574
Range status and errors
Selected range
Filename D:\EAC\Mercadante - la Vestale, Arrivabeni CD1.wav
Peak level 83.4 %
Extraction speed 1.7 X
Range quality 100.0 %
Test CRC A663B491
Copy CRC A663B491
Copy OK
No errors occurred
AccurateRip summary
Track 1 accurately ripped (confidence 2) [5512F34B] (AR v1)
Track 2 accurately ripped (confidence 2) [FB687A68] (AR v1)
Track 3 accurately ripped (confidence 2) [8426BC8A] (AR v1)
Track 4 accurately ripped (confidence 2) [8BB87009] (AR v1)
Track 5 accurately ripped (confidence 2) [ABECA8F6] (AR v1)
Track 6 accurately ripped (confidence 2) [A24C359C] (AR v1)
Track 7 accurately ripped (confidence 2) [FEA7FCB7] (AR v1)
All tracks accurately ripped
End of status report
---- CUETools DB Plugin V2.1.6
[CTDB TOCID: C6Yl1nt8FIC6IQRXx1XPHXnGCMY-] found
Submit result: C6Yl1nt8FIC6IQRXx1XPHXnGCMY- has been confirmed
Track | CTDB Status
1 | (1/1) Accurately ripped
2 | (1/1) Accurately ripped
3 | (1/1) Accurately ripped
4 | (1/1) Accurately ripped
5 | (1/1) Accurately ripped
6 | (1/1) Accurately ripped
7 | (1/1) Accurately ripped
==== Log checksum B9A0D0E5959F31F1024F502C010DAECC4B9092861A40230ACD529C1B0C670450 ====

CD2

Exact Audio Copy V1.0 beta 6 from 9. April 2015
EAC extraction logfile from 19. September 2015, 1:16
Milazzo, Alcala, Bienkowska - Wexford Festival Opera, Arrivabeni / Mercadante - la Vestale, Arrivabeni CD2
Used drive : TS8XDVDSTRANSCEND Adapter: 1 ID: 1
Read mode : Secure
Utilize accurate stream : Yes
Defeat audio cache : Yes
Make use of C2 pointers : No
Read offset correction : 6
Overread into Lead-In and Lead-Out : No
Fill up missing offset samples with silence : Yes
Delete leading and trailing silent blocks : No
Null samples used in CRC calculations : Yes
Used interface : Native Win32 interface for Win NT & 2000
Used output format : Monkey's Audio Lossless Encoder
Selected bitrate : High Lossless Compression
Quality : High
Add ID3 tag : Yes
Command line compressor : C:\Program Files (x86)\Exact Audio Copy\MAC\MAC.exe
TOC of the extracted CD
Track | Start | Length | Start sector | End sector
---------------------------------------------------------
1 | 0:00.00 | 4:00.36 | 0 | 18035
2 | 4:00.36 | 9:05.22 | 18036 | 58932
3 | 13:05.58 | 7:31.38 | 58933 | 92795
4 | 20:37.21 | 5:46.44 | 92796 | 118789
5 | 26:23.65 | 4:42.46 | 118790 | 139985
6 | 31:06.36 | 3:50.61 | 139986 | 157296
7 | 34:57.22 | 8:11.00 | 157297 | 194121
8 | 43:08.22 | 4:14.20 | 194122 | 213191
9 | 47:22.42 | 11:21.33 | 213192 | 264299
Range status and errors
Selected range
Filename D:\EAC\Mercadante - la Vestale, Arrivabeni CD2.wav
Peak level 79.6 %
Extraction speed 1.9 X
Range quality 100.0 %
Test CRC 1328EE43
Copy CRC 1328EE43
Copy OK
No errors occurred
AccurateRip summary
Track 1 accurately ripped (confidence 1) [8517F59E] (AR v1)
Track 2 accurately ripped (confidence 1) [5E2582F8] (AR v1)
Track 3 accurately ripped (confidence 1) [02E8BAB5] (AR v1)
Track 4 accurately ripped (confidence 1) [A3CD20FA] (AR v1)
Track 5 accurately ripped (confidence 1) [A60A2E77] (AR v1)
Track 6 accurately ripped (confidence 1) [89BB87FA] (AR v1)
Track 7 accurately ripped (confidence 1) [8EB347FE] (AR v1)
Track 8 accurately ripped (confidence 1) [58AFBEC7] (AR v1)
Track 9 accurately ripped (confidence 1) [C3A8DD6A] (AR v1)
All tracks accurately ripped
End of status report
---- CUETools DB Plugin V2.1.6
[CTDB TOCID: T.qIPJnIXfoIe85sfL22ZWvFu2s-] found
Submit result: unrecognized or virtual drive
Track | CTDB Status
1 | (1/1) Accurately ripped
2 | (1/1) Accurately ripped
3 | (1/1) Accurately ripped
4 | (1/1) Accurately ripped
5 | (1/1) Accurately ripped
6 | (1/1) Accurately ripped
7 | (1/1) Accurately ripped
8 | (1/1) Accurately ripped
9 | (1/1) Accurately ripped
==== Log checksum E661772CF97690A8BA517B4F614E60791E10F3EC34128AA4CAAB5538BF6F64B8 ====

Содержание индексной карты (.CUE)

CD1

REM GENRE Opera
REM DATE 2004
REM DISCID 4908FD07
REM COMMENT "ExactAudioCopy v1.0b6"
PERFORMER "Milazzo, Alcala, Bienkowska - Wexford Festival Opera, Arrivabeni"
TITLE "Mercadante - la Vestale, Arrivabeni CD1"
FILE "Mercadante - la Vestale, Arrivabeni CD1.ape" WAVE
TRACK 01 AUDIO
TITLE "Act I Prelude and morning prayer: 'Salve O Dea protettrice di Roma'"
PERFORMER "Milazzo, Alcala, Bienkowska - Wexford Festival Opera, Arrivabeni"
ISRC HKI190461401
INDEX 01 00:00:00
TRACK 02 AUDIO
TITLE "Recitative after the prayer: 'Si, ministre dell'ara'"
PERFORMER "Milazzo, Alcala, Bienkowska - Wexford Festival Opera, Arrivabeni"
ISRC HKI190461402
INDEX 01 04:36:50
TRACK 03 AUDIO
TITLE "Scena and Duet: 'Ingiusto ciel... Di conforto un raggio solo'"
PERFORMER "Milazzo, Alcala, Bienkowska - Wexford Festival Opera, Arrivabeni"
ISRC HKI190461403
INDEX 01 06:44:50
TRACK 04 AUDIO
TITLE "Triumphal Chorus: 'Plauso al Duce vincitore'"
PERFORMER "Milazzo, Alcala, Bienkowska - Wexford Festival Opera, Arrivabeni"
ISRC HKI190461404
INDEX 01 16:50:44
TRACK 05 AUDIO
TITLE "Scena and Largo of the Pezzo Concertato: 'Padre! -- Decio, m'abbraccia... Qua..."
PERFORMER "Milazzo, Alcala, Bienkowska - Wexford Festival Opera, Arrivabeni"
ISRC HKI190461405
INDEX 01 20:30:74
TRACK 06 AUDIO
TITLE "Continuation and Stretta of the Pezzo Concertate: 'Si compia il rito'"
PERFORMER "Milazzo, Alcala, Bienkowska - Wexford Festival Opera, Arrivabeni"
ISRC HKI190461406
INDEX 01 27:04:28
TRACK 07 AUDIO
TITLE "Scena and Duet, Finale I: 'Publio, mi sei tu vero amico? ... E la patria, e R..."
PERFORMER "Milazzo, Alcala, Bienkowska - Wexford Festival Opera, Arrivabeni"
ISRC HKI190461407
INDEX 01 31:45:11

CD2

REM GENRE Opera
REM DATE 2004
REM DISCID 8F0DC409
REM COMMENT "ExactAudioCopy v1.0b6"
PERFORMER "Milazzo, Alcala, Bienkowska - Wexford Festival Opera, Arrivabeni"
TITLE "Mercadante - la Vestale, Arrivabeni CD2"
FILE "Mercadante - la Vestale, Arrivabeni CD2.ape" WAVE
TRACK 01 AUDIO
TITLE "Act II Introduction and Prayer: 'Se fino al cielo ascendere'"
PERFORMER "Milazzo, Alcala, Bienkowska - Wexford Festival Opera, Arrivabeni"
ISRC HKI190461501
INDEX 01 00:00:00
TRACK 02 AUDIO
TITLE "Scene and Duet: 'A te commetto la sacra face... No, l'acciar non fu spietato'"
PERFORMER "Milazzo, Alcala, Bienkowska - Wexford Festival Opera, Arrivabeni"
ISRC HKI190461502
INDEX 01 04:00:36
TRACK 03 AUDIO
TITLE "Scena and Aria: 'Ah, il foco -- E spento... Vesate amare lagrime'"
PERFORMER "Milazzo, Alcala, Bienkowska - Wexford Festival Opera, Arrivabeni"
ISRC HKI190461503
INDEX 01 13:05:58
TRACK 04 AUDIO
TITLE "Scena before the Act II Finale: 'Sull'attonita fronte'"
PERFORMER "Milazzo, Alcala, Bienkowska - Wexford Festival Opera, Arrivabeni"
ISRC HKI190461504
INDEX 01 20:37:21
TRACK 05 AUDIO
TITLE "Continuation and Largo of Finale II: 'Consoli, piu s'aspetta?'"
PERFORMER "Milazzo, Alcala, Bienkowska - Wexford Festival Opera, Arrivabeni"
ISRC HKI190461505
INDEX 01 26:23:65
TRACK 06 AUDIO
TITLE "Continuation and stretta of Finale II: 'Padre! -- Di Roma un Console figli no..."
PERFORMER "Milazzo, Alcala, Bienkowska - Wexford Festival Opera, Arrivabeni"
ISRC HKI190461506
INDEX 01 31:06:36
TRACK 07 AUDIO
TITLE "Act III Chorus, Scena and Aria: 'Il Console ci ascolti... Se non potra la vit..."
PERFORMER "Milazzo, Alcala, Bienkowska - Wexford Festival Opera, Arrivabeni"
ISRC HKI190461507
INDEX 00 34:55:27
INDEX 01 34:57:22
TRACK 08 AUDIO
TITLE "Chorus before the Duet: 'Ah, questa vittima'"
PERFORMER "Milazzo, Alcala, Bienkowska - Wexford Festival Opera, Arrivabeni"
ISRC HKI190461508
INDEX 01 43:08:22
TRACK 09 AUDIO
TITLE "Scena and Duet, Finale III: 'Ove tratta son'io... Ah! mira gl'incensi'"
PERFORMER "Milazzo, Alcala, Bienkowska - Wexford Festival Opera, Arrivabeni"
ISRC HKI190461509
INDEX 01 47:22:42
Доп. информация:
La vestale (The Vestal Virgin) takes the form of a tragedia lirica in three acts. The libretto, by Salvadore Cammarano, was influenced by Victor-Joseph Étienne de Jouy's libretto for Spontini's more famous opera of the same name http://teatrix.ru/viewtopic.php?t=21040 - http://teatrix.ru/viewtopic.php?t=19323.
The opera's first performance took place at the Teatro San Carlo, Naples on 10 March 1840.
Synopsis
Place: Ancient Rome
Time: the Gallic Wars
Act 1
A sacred wood
Emilia, who believes that her lover, the warrior Decio, is dead, has joined the Vestal Virgins. The Gran Vestale (High Priestess) announces that Decio has defeated the Gauls. Emilia, unable to escape from her new position, is comforted by her friend Giulia, also a vestal virgin. When Decio arrives, he is aghast to discover that, of all the vestal virgins, it is Emilia who presents him with the laurel wreath. Alone, they lament their fate, but Decio decides that he will defy the Goddess. His friend Publio tries to keep him on the right side of the law, but eventually agrees that he will help Decio to see Emilia in secret in the Temple.
Act 2
Scene 1: The Temple of Vesta
Giunia is praying for Emilia, while the Gran Vestale warns Emilia that if the sacred flame is allowed to go out, Rome will be in danger and the guardian of the flame will have to die. Decio arrives through the secret passage, leaving Publio to keep watch. Decio and Emilia are in despair and he threatens to commit suicide. Emilia dissuades him, but suddenly the flame goes out. Publio pulls Decio away as Emilia faints and is attended by Giunia. Metello arrives, admonishes the vestal virgins, and insists that Emilia be tried by the Senate.
Scene 2: In the sacred wood outside the Temple
The Senate gathers, and Licinio (Decio's father) condemns Emilia to death. Giunia tries to take the blame, but Emilia rejects her offer. Decio asks Licinio to spare Emilia, but his father disowns him.
Act 3
Outside Emilia's tomb
Publio attempts to change Licinio's mind, pointing out that Decio is contemplating suicide. Licinio is adamant that the law must take its course. Emilia, who has lost her reason, thinks that her funeral cortège is for her wedding. However, approaching her tomb, she recovers and bids farewell to Giunia and the vestals. Decio and his troops arrive, but it is too late. He attacks Metello, but Licinio intervenes. Decio decides to join Emilia in death and commits suicide.



Показать сообщения:    

Текущее время: 06-Дек 17:11

Часовой пояс: UTC + 3


Вы не можете начинать темы
Вы не можете отвечать на сообщения
Вы не можете редактировать свои сообщения
Вы не можете удалять свои сообщения
Вы не можете голосовать в опросах
Вы не можете прикреплять файлы к сообщениям
Вы не можете скачивать файлы