(Opera, Studio Recording) Mercadante - Virginia (Patterson, Castronovo, Clarke - Geoffrey Mitchell Choir / London Philharmonic Orchestra, Benini) - 2009, APE (image+.cue) lossless


 

[Цитировать]

Saverio Mercadante - Virginia
Жанр: Opera, Studio Recording
Страна-производитель диска: UK
Год издания диска: 2009
Издатель (лейбл): Opera Rara
Номер по каталогу: ORC39
Дата записи: 2008
Аудиокодек: APE
Тип рипа: image+.cue
Битрейт аудио: lossless
Продолжительность: 78'39+77'42
Источник: скачано с
Наличие сканов в содержимом раздачи: да
Треклист:

CD1

1. Act I: Introduction
2. Scene 1: Qui Roma
3. Ahime! ? Ahime!?
4. Si vegga la gioia
5. Scene 2: Cavatina: Di sozza la gioia
6. Scene 3: Cavatina: Alfin tu giungi!?
7. Scene 4: Cavatina: Al cor furente ed ebro
8. Scene 5: La, della madre
9. Cavatina: Figlia, ti scuoti
10. Cavatina: Icilio, quel magnanimo
11. Scene 6: Scene and Trio: Tullie, se m'ami
12. Scene 7: Scene and Trio: Virginia?
13. Scene and Trio: Come! ? Il ver discerno?
14. Scene 8: Scene and Trio: Paventa insano
15. Scene and Trio: Dell' odio antico
16. Scene and Trio: Calcando il mio cadavere
17. Act II Scene 1: Scene and Aria: Eccomi alfin
18. Scene and Aria: Oh! quante volte
19. Scene and Aria: Oh! me infelice!?
20. Scene 2: Scene and Duet: Virginio!
21. Scene and Duet: Allor che avvinti
22. Scene 3: Scene and Duet: Eccone a te
23. Scene and Duet: La gioia di quest' anima

CD2

1. Act II Scene 4: Finale: Dallo stellato empireo
2. Scene 5: Finale: Fermate?
3. Scene 6: Finale: Iniquo!
4. Finale: Ne ti ritraggi
5. Finale: Ah! perfido!
6. Act III Scene 1: Scene and Duet: Si, ch'egli lasci
7. Scene 2: Scene and Duet: Ad ora Tarda
8. Scene and Duet: Si opporrebbe
9. Scene and Duet: Tant'osi?
10. Scene 3: Scene and Duet: Come insensata giace
11. Scene and Duet: Sacri Penati
12. Scene 4 :Scene and Duet: Che fia?
13. Scene 5: Scene and Finale: In vestimenti squallidi
14. Final Scene: Mira d'innanzi
15. Final Scene: All' empia sentenza
16. Final Scene: Nera idea!?
17. Final Scene: Ah! m'odi almeno
18. Final Scene: Ch'io t'annodi
19. Final Scene: Or sian divisi
Исполнители:
Saverio Mercadante - Virginia
Opera in 3 Acts
Virginia - Susan Patterson
Virginio - Stefano Anonucci
Appio - Paul Charles Clarke
Icilio - Charles Castronovo
Marco - Andrew Foster-Williams
Tullia - Katherine Manley
Valerio - Mark Le Brocq
Geoffrey Mitchell Choir
London Philharmonic Orchestra
Maurizio Benini

Лог создания рипа

CD1

Exact Audio Copy V1.0 beta 6 from 9. April 2015
EAC extraction logfile from 18. September 2015, 21:54
Patterson, Antonucci, Clarke, Castronovo - London PO, Benini / Mercadante - Virginia, Benini CD1
Used drive : TSSTcorpCDDVDW SE-208AB Adapter: 1 ID: 2
Read mode : Secure
Utilize accurate stream : Yes
Defeat audio cache : Yes
Make use of C2 pointers : No
Read offset correction : 6
Overread into Lead-In and Lead-Out : No
Fill up missing offset samples with silence : Yes
Delete leading and trailing silent blocks : No
Null samples used in CRC calculations : Yes
Used interface : Native Win32 interface for Win NT & 2000
Used output format : Monkey's Audio Lossless Encoder
Selected bitrate : High Lossless Compression
Quality : High
Add ID3 tag : Yes
Command line compressor : C:\Program Files (x86)\Exact Audio Copy\MAC\MAC.exe
TOC of the extracted CD
Track | Start | Length | Start sector | End sector
---------------------------------------------------------
1 | 0:00.00 | 3:22.50 | 0 | 15199
2 | 3:22.50 | 3:14.53 | 15200 | 29802
3 | 6:37.28 | 2:54.19 | 29803 | 42871
4 | 9:31.47 | 2:20.24 | 42872 | 53395
5 | 11:51.71 | 3:59.42 | 53396 | 71362
6 | 15:51.38 | 2:02.67 | 71363 | 80579
7 | 17:54.30 | 3:28.31 | 80580 | 96210
8 | 21:22.61 | 4:32.69 | 96211 | 116679
9 | 25:55.55 | 5:26.05 | 116680 | 141134
10 | 31:21.60 | 5:22.47 | 141135 | 165331
11 | 36:44.32 | 1:57.69 | 165332 | 174175
12 | 38:42.26 | 6:00.08 | 174176 | 201183
13 | 44:42.34 | 1:40.34 | 201184 | 208717
14 | 46:22.68 | 5:09.36 | 208718 | 231928
15 | 51:32.29 | 1:32.30 | 231929 | 238858
16 | 53:04.59 | 4:11.16 | 238859 | 257699
17 | 57:16.00 | 2:48.47 | 257700 | 270346
18 | 60:04.47 | 3:18.69 | 270347 | 285265
19 | 63:23.41 | 4:49.63 | 285266 | 307003
20 | 68:13.29 | 2:32.49 | 307004 | 318452
21 | 70:46.03 | 2:48.59 | 318453 | 331111
22 | 73:34.62 | 1:45.10 | 331112 | 338996
23 | 75:19.72 | 3:17.19 | 338997 | 353790
Range status and errors
Selected range
Filename D:\EAC\Mercadante - Virginia, Benini CD1.wav
Peak level 98.7 %
Extraction speed 2.3 X
Range quality 100.0 %
Test CRC 6AFDE720
Copy CRC 6AFDE720
Copy OK
No errors occurred
AccurateRip summary
Track 1 accurately ripped (confidence 2) [7831858B] (AR v2)
Track 2 accurately ripped (confidence 2) [5173370E] (AR v2)
Track 3 accurately ripped (confidence 2) [1C1761DF] (AR v2)
Track 4 accurately ripped (confidence 2) [CA0D051F] (AR v2)
Track 5 accurately ripped (confidence 2) [45E406DB] (AR v2)
Track 6 accurately ripped (confidence 2) [28191301] (AR v2)
Track 7 accurately ripped (confidence 2) [79A2C890] (AR v2)
Track 8 accurately ripped (confidence 2) [D68B2CEC] (AR v2)
Track 9 accurately ripped (confidence 2) [F243DE93] (AR v2)
Track 10 accurately ripped (confidence 2) [09A65425] (AR v2)
Track 11 accurately ripped (confidence 2) [E0DA72BB] (AR v2)
Track 12 accurately ripped (confidence 2) [45CDE88F] (AR v2)
Track 13 accurately ripped (confidence 2) [B70C28C1] (AR v2)
Track 14 accurately ripped (confidence 2) [11D54BEB] (AR v2)
Track 15 accurately ripped (confidence 2) [DE376693] (AR v2)
Track 16 accurately ripped (confidence 2) [4A4242B2] (AR v2)
Track 17 accurately ripped (confidence 2) [21B44E2D] (AR v2)
Track 18 accurately ripped (confidence 2) [69A17682] (AR v2)
Track 19 accurately ripped (confidence 2) [61F6D71D] (AR v2)
Track 20 accurately ripped (confidence 2) [921CBAF1] (AR v2)
Track 21 accurately ripped (confidence 2) [FBFBAF52] (AR v2)
Track 22 accurately ripped (confidence 2) [C9D2C2C6] (AR v2)
Track 23 accurately ripped (confidence 2) [27901696] (AR v2)
All tracks accurately ripped
End of status report
---- CUETools DB Plugin V2.1.6
[CTDB TOCID: 5KQMT5.2R4hnuSwOLZKepHcJ6IU-] found
Submit result: 5KQMT5.2R4hnuSwOLZKepHcJ6IU- has been confirmed
Track | CTDB Status
1 | (3/3) Accurately ripped
2 | (3/3) Accurately ripped
3 | (3/3) Accurately ripped
4 | (3/3) Accurately ripped
5 | (3/3) Accurately ripped
6 | (3/3) Accurately ripped
7 | (3/3) Accurately ripped
8 | (3/3) Accurately ripped
9 | (3/3) Accurately ripped
10 | (3/3) Accurately ripped
11 | (3/3) Accurately ripped
12 | (3/3) Accurately ripped
13 | (3/3) Accurately ripped
14 | (3/3) Accurately ripped
15 | (3/3) Accurately ripped
16 | (3/3) Accurately ripped
17 | (3/3) Accurately ripped
18 | (3/3) Accurately ripped
19 | (3/3) Accurately ripped
20 | (3/3) Accurately ripped
21 | (3/3) Accurately ripped
22 | (3/3) Accurately ripped
23 | (3/3) Accurately ripped
==== Log checksum C53715A405A93B0A478ECF838C5BE6F8900B96B07ACBEB8C6B26E4DC9D52D88A ====

CD2

Exact Audio Copy V1.0 beta 6 from 9. April 2015
EAC extraction logfile from 20. September 2015, 21:02
Patterson, Antonucci, Clarke, Castronovo - London PO, Benini / Mercadante - Virginia, Benini CD2
Used drive : TSSTcorpCDDVDW SE-208AB Adapter: 1 ID: 2
Read mode : Secure
Utilize accurate stream : Yes
Defeat audio cache : Yes
Make use of C2 pointers : No
Read offset correction : 6
Overread into Lead-In and Lead-Out : No
Fill up missing offset samples with silence : Yes
Delete leading and trailing silent blocks : No
Null samples used in CRC calculations : Yes
Used interface : Native Win32 interface for Win NT & 2000
Used output format : Monkey's Audio Lossless Encoder
Selected bitrate : High Lossless Compression
Quality : High
Add ID3 tag : Yes
Command line compressor : C:\Program Files (x86)\Exact Audio Copy\MAC\MAC.exe
TOC of the extracted CD
Track | Start | Length | Start sector | End sector
---------------------------------------------------------
1 | 0:00.00 | 7:24.48 | 0 | 33347
2 | 7:24.48 | 3:58.35 | 33348 | 51232
3 | 11:23.08 | 6:56.50 | 51233 | 82482
4 | 18:19.58 | 2:38.16 | 82483 | 94348
5 | 20:57.74 | 3:10.09 | 94349 | 108607
6 | 24:08.08 | 2:31.10 | 108608 | 119942
7 | 26:39.18 | 0:53.34 | 119943 | 123951
8 | 27:32.52 | 3:08.34 | 123952 | 138085
9 | 30:41.11 | 4:54.42 | 138086 | 160177
10 | 35:35.53 | 4:24.01 | 160178 | 179978
11 | 39:59.54 | 6:09.18 | 179979 | 207671
12 | 46:08.72 | 3:21.21 | 207672 | 222767
13 | 49:30.18 | 5:23.30 | 222768 | 247022
14 | 54:53.48 | 2:20.36 | 247023 | 257558
15 | 57:14.09 | 7:45.48 | 257559 | 292481
16 | 64:59.57 | 0:54.45 | 292482 | 296576
17 | 65:54.27 | 3:08.28 | 296577 | 310704
18 | 69:02.55 | 6:41.49 | 310705 | 340828
19 | 75:44.29 | 1:55.53 | 340829 | 349506
Range status and errors
Selected range
Filename D:\EAC\Mercadante - Virginia, Benini CD2.wav
Peak level 98.7 %
Extraction speed 5.3 X
Range quality 100.0 %
Test CRC F51601DD
Copy CRC F51601DD
Copy OK
No errors occurred
AccurateRip summary
Track 1 accurately ripped (confidence 2) [515D07B5] (AR v2)
Track 2 accurately ripped (confidence 2) [9404B6BB] (AR v2)
Track 3 accurately ripped (confidence 2) [0EC307FA] (AR v2)
Track 4 accurately ripped (confidence 2) [BB8EF382] (AR v2)
Track 5 accurately ripped (confidence 2) [DBD3B53A] (AR v2)
Track 6 accurately ripped (confidence 2) [929FE69F] (AR v2)
Track 7 accurately ripped (confidence 2) [8CC9261D] (AR v2)
Track 8 accurately ripped (confidence 2) [E6B414D6] (AR v2)
Track 9 accurately ripped (confidence 2) [D9AC03CC] (AR v2)
Track 10 accurately ripped (confidence 2) [A6F87966] (AR v2)
Track 11 accurately ripped (confidence 2) [6D6360C2] (AR v2)
Track 12 accurately ripped (confidence 2) [59B8AB62] (AR v2)
Track 13 accurately ripped (confidence 2) [0DBCBBE3] (AR v2)
Track 14 accurately ripped (confidence 2) [E9045D03] (AR v2)
Track 15 accurately ripped (confidence 2) [B9D1ECD2] (AR v2)
Track 16 accurately ripped (confidence 2) [9EA82983] (AR v2)
Track 17 accurately ripped (confidence 2) [6E19C0D7] (AR v2)
Track 18 accurately ripped (confidence 2) [43F6A853] (AR v2)
Track 19 accurately ripped (confidence 2) [0747B987] (AR v2)
All tracks accurately ripped
End of status report
---- CUETools DB Plugin V2.1.6
[CTDB TOCID: RyoIeMs0in9tlKJWE992gkyhmgc-] found
Submit result: RyoIeMs0in9tlKJWE992gkyhmgc- has been confirmed
Track | CTDB Status
1 | (4/4) Accurately ripped
2 | (4/4) Accurately ripped
3 | (4/4) Accurately ripped
4 | (4/4) Accurately ripped
5 | (4/4) Accurately ripped
6 | (4/4) Accurately ripped
7 | (4/4) Accurately ripped
8 | (4/4) Accurately ripped
9 | (4/4) Accurately ripped
10 | (4/4) Accurately ripped
11 | (4/4) Accurately ripped
12 | (4/4) Accurately ripped
13 | (4/4) Accurately ripped
14 | (3/4) Accurately ripped
15 | (4/4) Accurately ripped
16 | (4/4) Accurately ripped
17 | (4/4) Accurately ripped
18 | (3/4) Accurately ripped
19 | (4/4) Accurately ripped
==== Log checksum DAFC101567CF0A71AF56D21C3A8527515D40D15143129D4C4CDB55E91B8A3333 ====

Содержание индексной карты (.CUE)

CD1

REM GENRE Opera
REM DATE 2009
REM DISCID 5C126D17
REM COMMENT "ExactAudioCopy v1.0b6"
PERFORMER "Patterson, Antonucci, Clarke, Castronovo - London PO, Benini"
TITLE "Mercadante - Virginia, Benini CD1"
FILE "Mercadante - Virginia, Benini CD1.ape" WAVE
TRACK 01 AUDIO
TITLE "Act I - Introduzione"
PERFORMER "Patterson, Antonucci, Clarke, Castronovo - London PO, Benini"
INDEX 01 00:00:00
TRACK 02 AUDIO
TITLE "Cavatina - Qui Roma"
PERFORMER "Patterson, Antonucci, Clarke, Castronovo - London PO, Benini"
INDEX 01 03:22:50
TRACK 03 AUDIO
TITLE "Ahimè!... Ahimè!..."
PERFORMER "Patterson, Antonucci, Clarke, Castronovo - London PO, Benini"
INDEX 01 06:37:28
TRACK 04 AUDIO
TITLE "Si vegga la gioia"
PERFORMER "Patterson, Antonucci, Clarke, Castronovo - London PO, Benini"
INDEX 01 09:31:47
TRACK 05 AUDIO
TITLE "Cavatina - Di sozzo gioia"
PERFORMER "Patterson, Antonucci, Clarke, Castronovo - London PO, Benini"
INDEX 01 11:51:71
TRACK 06 AUDIO
TITLE "Alfin tu giungi!..."
PERFORMER "Patterson, Antonucci, Clarke, Castronovo - London PO, Benini"
INDEX 01 15:51:38
TRACK 07 AUDIO
TITLE "Al cor furente ed ebro"
PERFORMER "Patterson, Antonucci, Clarke, Castronovo - London PO, Benini"
INDEX 01 17:54:30
TRACK 08 AUDIO
TITLE "Coro - Là, della madre"
PERFORMER "Patterson, Antonucci, Clarke, Castronovo - London PO, Benini"
INDEX 01 21:22:61
TRACK 09 AUDIO
TITLE "Cavatina - Figlia, ti scuoti"
PERFORMER "Patterson, Antonucci, Clarke, Castronovo - London PO, Benini"
INDEX 01 25:55:55
TRACK 10 AUDIO
TITLE "Icilio, quel magnanimo"
PERFORMER "Patterson, Antonucci, Clarke, Castronovo - London PO, Benini"
INDEX 01 31:21:60
TRACK 11 AUDIO
TITLE "Scena e terzetto finale - Tullia, se m'ami"
PERFORMER "Patterson, Antonucci, Clarke, Castronovo - London PO, Benini"
INDEX 01 36:44:32
TRACK 12 AUDIO
TITLE "Virginia¿"
PERFORMER "Patterson, Antonucci, Clarke, Castronovo - London PO, Benini"
INDEX 01 38:42:26
TRACK 13 AUDIO
TITLE "Come!... Il ver discerno¿"
PERFORMER "Patterson, Antonucci, Clarke, Castronovo - London PO, Benini"
INDEX 01 44:42:34
TRACK 14 AUDIO
TITLE "Paventa insano"
PERFORMER "Patterson, Antonucci, Clarke, Castronovo - London PO, Benini"
INDEX 01 46:22:68
TRACK 15 AUDIO
TITLE "Dell'odio antico"
PERFORMER "Patterson, Antonucci, Clarke, Castronovo - London PO, Benini"
INDEX 01 51:32:29
TRACK 16 AUDIO
TITLE "Calcando il mio cadavere"
PERFORMER "Patterson, Antonucci, Clarke, Castronovo - London PO, Benini"
INDEX 01 53:04:59
TRACK 17 AUDIO
TITLE "Act II - Scena ed aria - Eccomi alfin"
PERFORMER "Patterson, Antonucci, Clarke, Castronovo - London PO, Benini"
INDEX 01 57:16:00
TRACK 18 AUDIO
TITLE "Oh! quante volte"
PERFORMER "Patterson, Antonucci, Clarke, Castronovo - London PO, Benini"
INDEX 01 60:04:47
TRACK 19 AUDIO
TITLE "Oh! me infelice!..."
PERFORMER "Patterson, Antonucci, Clarke, Castronovo - London PO, Benini"
INDEX 01 63:23:41
TRACK 20 AUDIO
TITLE "Scena e duetto - Virginio"
PERFORMER "Patterson, Antonucci, Clarke, Castronovo - London PO, Benini"
INDEX 01 68:13:29
TRACK 21 AUDIO
TITLE "Allor che avvinti"
PERFORMER "Patterson, Antonucci, Clarke, Castronovo - London PO, Benini"
INDEX 01 70:46:03
TRACK 22 AUDIO
TITLE "Eccone a te"
PERFORMER "Patterson, Antonucci, Clarke, Castronovo - London PO, Benini"
INDEX 01 73:34:62
TRACK 23 AUDIO
TITLE "La gioia di quest'anima"
PERFORMER "Patterson, Antonucci, Clarke, Castronovo - London PO, Benini"
INDEX 01 75:19:72

CD2

REM GENRE Opera
REM DATE 2009
REM DISCID 09123413
REM COMMENT "ExactAudioCopy v1.0b6"
PERFORMER "Patterson, Antonucci, Clarke, Castronovo - London PO, Benini"
TITLE "Mercadante - Virginia, Benini CD2"
FILE "Mercadante - Virginia, Benini CD2.ape" WAVE
TRACK 01 AUDIO
TITLE "Dallo stellato empireo"
PERFORMER "Patterson, Antonucci, Clarke, Castronovo - London PO, Benini"
INDEX 01 00:00:00
TRACK 02 AUDIO
TITLE "Fermate..."
PERFORMER "Patterson, Antonucci, Clarke, Castronovo - London PO, Benini"
INDEX 00 07:24:40
INDEX 01 07:24:48
TRACK 03 AUDIO
TITLE "Iniquo!"
PERFORMER "Patterson, Antonucci, Clarke, Castronovo - London PO, Benini"
INDEX 01 11:23:08
TRACK 04 AUDIO
TITLE "Nè ti ritraggi"
PERFORMER "Patterson, Antonucci, Clarke, Castronovo - London PO, Benini"
INDEX 01 18:19:58
TRACK 05 AUDIO
TITLE "Ah! perfido!"
PERFORMER "Patterson, Antonucci, Clarke, Castronovo - London PO, Benini"
INDEX 01 20:57:74
TRACK 06 AUDIO
TITLE "Act III - Sì, ch'egli lasci"
PERFORMER "Patterson, Antonucci, Clarke, Castronovo - London PO, Benini"
INDEX 00 23:58:20
INDEX 01 24:08:08
TRACK 07 AUDIO
TITLE "Ad ora Tarda"
PERFORMER "Patterson, Antonucci, Clarke, Castronovo - London PO, Benini"
INDEX 01 26:39:18
TRACK 08 AUDIO
TITLE "Si opporrebbe"
PERFORMER "Patterson, Antonucci, Clarke, Castronovo - London PO, Benini"
INDEX 01 27:32:52
TRACK 09 AUDIO
TITLE "Tant'osi?"
PERFORMER "Patterson, Antonucci, Clarke, Castronovo - London PO, Benini"
INDEX 01 30:41:11
TRACK 10 AUDIO
TITLE "ome insensata giace"
PERFORMER "Patterson, Antonucci, Clarke, Castronovo - London PO, Benini"
INDEX 01 35:35:53
TRACK 11 AUDIO
TITLE "Sacri Penati"
PERFORMER "Patterson, Antonucci, Clarke, Castronovo - London PO, Benini"
INDEX 01 39:59:54
TRACK 12 AUDIO
TITLE "Che fia?"
PERFORMER "Patterson, Antonucci, Clarke, Castronovo - London PO, Benini"
INDEX 01 46:08:72
TRACK 13 AUDIO
TITLE "In vestimenti squallidi"
PERFORMER "Patterson, Antonucci, Clarke, Castronovo - London PO, Benini"
INDEX 00 49:22:32
INDEX 01 49:30:18
TRACK 14 AUDIO
TITLE "Mira d'innanzi"
PERFORMER "Patterson, Antonucci, Clarke, Castronovo - London PO, Benini"
INDEX 01 54:53:48
TRACK 15 AUDIO
TITLE "All'empia sentenza"
PERFORMER "Patterson, Antonucci, Clarke, Castronovo - London PO, Benini"
INDEX 01 57:14:09
TRACK 16 AUDIO
TITLE "Nera idea!..."
PERFORMER "Patterson, Antonucci, Clarke, Castronovo - London PO, Benini"
INDEX 01 64:59:57
TRACK 17 AUDIO
TITLE "Ah! m'odi almeno"
PERFORMER "Patterson, Antonucci, Clarke, Castronovo - London PO, Benini"
INDEX 01 65:54:27
TRACK 18 AUDIO
TITLE "Ch'io t'annodi"
PERFORMER "Patterson, Antonucci, Clarke, Castronovo - London PO, Benini"
INDEX 01 69:02:55
TRACK 19 AUDIO
TITLE "Or sian divisi"
PERFORMER "Patterson, Antonucci, Clarke, Castronovo - London PO, Benini"
INDEX 01 75:44:29



Показать сообщения:    

Текущее время: 04-Дек 21:16

Часовой пояс: UTC + 3


Вы не можете начинать темы
Вы не можете отвечать на сообщения
Вы не можете редактировать свои сообщения
Вы не можете удалять свои сообщения
Вы не можете голосовать в опросах
Вы не можете прикреплять файлы к сообщениям
Вы не можете скачивать файлы