[TR24][OF] Giacomo Puccini - La Boheme / Джакомо Пуччини - Богема (Herbert von Karajan; Luciano Pavarotti, Mirella Freni, Elizabeth Harwood, Rolando Panerai, Nicolai Ghiaurov), 1972 - Studio Recording / 2014 (Opera)


Статистика раздачи [Обновить пиров]
Размер:  2.06 GB   |    Зарегистрирован:  8 месяцев 14 дней   |    Скачан:  1 раз

Полного источника не было: 21 день

 
   
 
 
 

[Цитировать]

Giacomo Puccini - La Bohème
Формат записи/Источник записи: [TR24][OF]
Наличие водяных знаков: Нет
Год издания/переиздания диска: 2014
Жанр: Opera
Издатель(лейбл): DECCA
Продолжительность: 01:50:01
Исполнители:
Rodolfo - Luciano Pavarotti,
Mimi - Mirella Freni,
Musetta - Elizabeth Harwood,
Marcello - Rolando Panerai,
Colline - Nicolai Ghiaurov,
Schaunard - Gianni Maffeo,
Benoit/Alcindoro - Michel Sénéchal,
Parpignol - Gernot Pietsch,
Sergente dei doganieri - Hans-Dieter Appelt,
Un doganiere - Hans-Dietrich Pohl.
Conductor - Herbert von Karajan,
Berliner Philharmoniker,
Chorus of Deutsche Oper (Berlin).
Recorded at Jesus-Christus Kirche, Berlin, October 1972.
Контейнер: FLAC (*.flac)
Тип рипа: tracks
Разрядность: 24/96
Количество каналов: 2.0
Источник : qobuz

DR Report

foobar2000 1.3.6 / Замер динамического диапазона (DR) 1.1.1
Дата отчёта: 2015-10-14 19:40:05
--------------------------------------------------------------------------------
Анализ: Luciano Pavarotti / Mirella Freni / Elizabeth Harwood / Rolando Panerai / Chor der Deutschen Oper Berlin / Berliner Philharmoniker / Herbert von Karajan / Puccini: La Boheme
--------------------------------------------------------------------------------
DR Пики RMS Продолжительность трека
--------------------------------------------------------------------------------
DR13 -0.37 дБ -17.93 дБ 4:32 01-Puccini: La Boheme / Act 1 - "Questo Mar Rosso"
DR13 -1.09 дБ -20.47 дБ 1:11 02-Puccini: La Boheme / Act 1 - "Pensier profondo"
DR12 -0.36 дБ -17.61 дБ 3:50 03-Puccini: La Boheme / Act 1 - "Abasso, abbasso l'autor!"
DR13 -0.35 дБ -18.95 дБ 5:18 04-Puccini: La Boheme / Act 1 - "Si puo...Chi e la?"
DR14 -5.10 дБ -26.58 дБ 1:09 05-Puccini: La Boheme / Act 1 - "Io resto"
DR13 -2.69 дБ -25.09 дБ 1:11 06-Puccini: La Boheme / Act 1 - "Chi e la?"
DR14 -1.40 дБ -21.82 дБ 2:42 07-Puccini: La Boheme / Act 1 - "Si sente meglio?"
DR10 -0.35 дБ -15.88 дБ 4:37 08-Puccini: La Boheme / Act 1 - "Che gelida manina"
DR12 -0.35 дБ -19.46 дБ 5:58 09-Puccini: La Boheme / Act 1 - "Si. Mi chiamano Mimi"
DR11 -0.35 дБ -17.96 дБ 4:20 10-Puccini: La Boheme / Act 1 - "O soave fanciulla"
DR10 -0.35 дБ -14.36 дБ 2:53 11-Puccini: La Boheme / Act 2 - "Arranci, datteri!"
DR12 -0.35 дБ -16.93 дБ 3:08 12-Puccini: La Boheme / Act 2 - "Chi guardi?..- Ecco i giocattoli di Parpignol"
DR11 -0.35 дБ -15.75 дБ 2:21 13-Puccini: La Boheme / Act 2 - "Viva Parpignol...Una cuffietta a pizzi"
DR13 -0.35 дБ -18.31 дБ 3:31 14-Puccini: La Boheme / Act 2 - "Oh!...Essa!...Musetta!"
DR9 -0.35 дБ -15.09 дБ 5:20 15-Puccini: La Boheme / Act 2 - "Quando m'en vo'"
DR9 -0.35 дБ -13.95 дБ 2:28 16-Puccini: La Boheme / Act 2 - "Chi l'ha richiesto?"
DR23 -0.35 дБ -29.95 дБ 4:18 17-Puccini: La Boheme / Act 3 - "Ohe, la, le guardie!...Aprite!"
DR13 -5.12 дБ -25.90 дБ 1:03 18-Puccini: La Boheme / Act 3 - "Sa dirmi, scusi"
DR9 -0.35 дБ -15.67 дБ 5:05 19-Puccini: La Boheme / Act 3 - "Mimi! - Speravo di trovarvi qui"
DR12 -0.36 дБ -16.10 дБ 1:18 20-Puccini: La Boheme / Act 3 - "Marcello. Finalmente!"
DR10 -0.37 дБ -15.84 дБ 1:27 21-Puccini: La Boheme / Act 3 - "Mimi e una civetta"
DR11 -0.35 дБ -16.56 дБ 3:21 22-Puccini: La Boheme / Act 3 - "Mimi e tanto malata!"
DR11 -0.85 дБ -19.15 дБ 3:22 23-Puccini: La Boheme / Act 3 - "Donde lieta usci"
DR11 -0.35 дБ -17.17 дБ 6:16 24-Puccini: La Boheme / Act 3 - "Dunque: e proprio finita!...Addio, dolce svegliare"
DR13 -0.35 дБ -19.78 дБ 1:44 25-Puccini: La Boheme / Act 4 - "In un coupe?"
DR13 -0.36 дБ -18.59 дБ 5:28 26-Puccini: La Boheme / Act 4 - "O Mimi, tu piu non torni...Che ora sia"
DR13 -0.83 дБ -18.15 дБ 1:40 27-Puccini: La Boheme / Act 4 - "Gavotta"
DR13 -0.35 дБ -19.65 дБ 6:08 28-Puccini: La Boheme / Act 4 - "C'e Mimi..."
DR14 -6.98 дБ -27.06 дБ 2:32 29-Puccini: La Boheme / Act 4 - "Vecchia zimarra, senti"
DR13 -1.09 дБ -20.69 дБ 5:59 30-Puccini: La Boheme / Act 4 - "Sono andati"
DR12 -0.35 дБ -19.25 дБ 6:03 31-Puccini: La Boheme / Act 4 - "Oh Dio! Mimi! ...Che avvien?"
--------------------------------------------------------------------------------
Количество треков: 31
Реальные значения DR: DR12
Частота: 96000 Гц
Каналов: 2
Разрядность: 24
Битрейт: 2570 кбит/с
Кодек: FLAC
================================================================================

Треклист

Act 1:
1. "Questo Mar Rosso"
2. "Pensier profondo"
3. "Abasso, abbasso l'autor!"
4. "Si può...Chi è là?"
5. "Io resto"
6. "Chi è là?"
7. "Si sente meglio?"
8. "Che gelida manina"
9. "Sì. Mi chiamano Mimì"
10. "O soave fanciulla"
Act 2:
11. "Arranci, datteri!"
12. "Chi guardi?..- Ecco i giocattoli di Parpignol"
13. "Viva Parpignol...Una cuffietta a pizzi"
14. "Oh!...Essa!...Musetta!"
15. "Quando m'en vo'"
16. "Chi l'ha richiesto?"
Disc 2:
Act 3:
1. "Ohè, là, le guardie!... Aprite!"
2 ."Sa dirmi, scusi"
3. "Mimì! - Speravo di trovarvi qui"
4. "Marcello. Finalmente!"
5. "Mimì è una civetta"
6. "Mimì è tanto malata!"
7. "Donde lieta uscì"
8. "Dunque: è proprio finita!... Addio, dolce svegliare"
Act 4:
9. "In un coupé?"
10. "O Mimì, tu più non torni...Che ora sia"
11. "Gavotta"
12. "C'è Mimì..."
13. "Vecchia zimarra, senti"
14. "Sono andati"
15. Oh Dio! Mimi! ...Che avvien?"
[teatrix.ru].t22445.torrent 
Торрент: Зарегистрирован [ 2016-03-20 12:33 ] · C1DA0913EA4C3B5757B44EB5FCD8C216F031FA47

Скачать .torrent

Скачать

14 KB

Статус: проверено
Скачан: 1 раз
Размер: 2.06 GB
terms.php



Быстрый ответ

Имя:

      
Для отправки сообщений необходимо включить JavaScript
Показать сообщения:    

Текущее время: 04-Дек 06:58

Часовой пояс: UTC + 3


Вы можете начинать темы
Вы можете отвечать на сообщения
Вы не можете редактировать свои сообщения
Вы не можете удалять свои сообщения
Вы не можете голосовать в опросах
Вы не можете прикреплять файлы к сообщениям
Вы можете скачивать файлы