[TR24][OF] Giacomo Puccini - Madama Butterfly / Джакомо Пуччини - Мадам Баттерфляй (Herbert von Karajan; Wiener Philharmoniker; Mirella Freni, Luciano Pavarotti, Robert Kerns, Christa Ludwig), 1974 - Studio Recording / 2014 (Opera)


Статистика раздачи [Обновить пиров]
Размер:  2.5 GB   |    Зарегистрирован:  8 месяцев 15 дней   |    Скачан:  1 раз

Полного источника не было: 22 дня

 
   
 
 
 

[Цитировать]

Giacomo Puccini - Madama Butterfly
Формат записи/Источник записи: [TR24][OF]
Наличие водяных знаков: Нет
Год издания/переиздания диска: 2014
Жанр: Opera
Издатель(лейбл): DECCA
Продолжительность: 02:25:22
Исполнители:
Cio Cio San - Mirella Freni,
Pinkerton - Luciano Pavarotti,
Sharpless - Robert Kerns,
Suzuki - Christa Ludwig,
Kate Pinkerton - Elke Schary,
Goro - Michel Sénéchal,
Il principe Yamadori - Giorgio Stendoro,
Lo zio Bonzo - Marius Rintzler,
Il commissario imperiale - Hans Helm,
Yakusidè - Wolfgang Scheider,
L'ufficiale del Registro - Siegfried Rudolf Frese,
La madre di Cio Cio San - Evamaria Hurdes,
La zia - Erna Mühlerberger,
La cugina - Martha Heigl.
Conductor - Herbert von Karajan,
Wiener Philharmoniker,
Chorus of Wiener Staatsoper.
Recorded at Sofiensaal, Vienna, January 1974.
Контейнер: FLAC (*.flac)
Тип рипа: tracks
Разрядность: 24/96
Количество каналов: 2.0
Источник: qobuz

DR Report

foobar2000 1.3.6 / Замер динамического диапазона (DR) 1.1.1
Дата отчёта: 2015-10-14 21:37:04
--------------------------------------------------------------------------------
Анализ: Luciano Pavarotti / Mirella Freni / Christa Ludwig / Wiener Staatsopernchor / Wiener Philharmoniker / Herbert von Karajan / Puccini: Madama Butterfly
--------------------------------------------------------------------------------
DR Пики RMS Продолжительность трека
--------------------------------------------------------------------------------
DR13 -0.36 дБ -20.56 дБ 2:55 01-Puccini: Madama Butterfly / Act 1 - "... E soffitto e pareti"
DR14 -2.92 дБ -23.13 дБ 3:30 02-Puccini: Madama Butterfly / Act 1 - "Sorride Vostro Onore?"
DR13 -1.59 дБ -19.38 дБ 2:59 03-Puccini: Madama Butterfly / Act 1 - "Dovunque al mondo"
DR12 -0.38 дБ -18.68 дБ 2:34 04-Puccini: Madama Butterfly / Act 1 - "America For Ever"
DR11 -0.07 дБ -16.51 дБ 2:09 05-Puccini: Madama Butterfly / Act 1 - "Ier l'altro il Consolato"
DR12 -2.51 дБ -20.62 дБ 3:43 06-Puccini: Madama Butterfly / Act 1 - "Ecco. Son giunte al sommo del pendio"
DR14 -4.24 дБ -26.87 дБ 3:52 07-Puccini: Madama Butterfly / Act 1 - "Gran ventura"
DR13 0.00 дБ -17.98 дБ 3:32 08-Puccini: Madama Butterfly / Act 1 - "L'Imperial Commissario"
DR13 -3.83 дБ -24.78 дБ 2:51 09-Puccini: Madama Butterfly / Act 1 - "Vieni, amor mio!"
DR13 0.00 дБ -20.10 дБ 2:15 10-Puccini: Madama Butterfly / Act 1 - "Ieri son salita tutta sola in segreto alla Missione"
DR14 -1.24 дБ -22.22 дБ 3:11 11-Puccini: Madama Butterfly / Act 1 - "Tutti zitti!"
DR9 -5.98 дБ -23.47 дБ 0:36 12-Puccini: Madama Butterfly / Act 1 - "O Kami! O Kami!"
DR12 0.00 дБ -16.52 дБ 2:44 13-Puccini: Madama Butterfly / Act 1 - "Cio-cio-san! Cio-cio-san!"
DR13 -6.39 дБ -28.48 дБ 2:20 14-Puccini: Madama Butterfly / Act 1 - "Bimba, bimba, non piangere"
DR13 -0.01 дБ -19.90 дБ 7:32 15-Puccini: Madama Butterfly / Act 1 - "Viene la sera"
DR11 0.00 дБ -16.34 дБ 7:59 16-Puccini: Madama Butterfly / Act 1 - "Vogliatemi bene"
DR16 -0.01 дБ -22.94 дБ 7:36 17-Puccini: Madama Butterfly / Act 2 - "E Izaghi ed Izanami, Sarundasico e Kami"
DR13 -0.01 дБ -20.09 дБ 4:39 18-Puccini: Madama Butterfly / Act 2 - "Un bel di vedremo"
DR14 -0.73 дБ -21.55 дБ 6:41 19-Puccini: Madama Butterfly / Act 2 - "C'e. Entrate"
DR15 -3.92 дБ -27.08 дБ 1:04 20-Puccini: Madama Butterfly / Act 2 - "Si sa che aprir la parta"
DR14 -1.52 дБ -23.07 дБ 2:00 21-Puccini: Madama Butterfly / Act 2 - "Udiste?"
DR15 -1.80 дБ -24.64 дБ 2:56 22-Puccini: Madama Butterfly / Act 2 - "Ora a noi. Sedete qui."
DR13 -0.02 дБ -20.89 дБ 2:53 23-Puccini: Madama Butterfly / Act 2 - "Ebbene, che fareste, Madama Butterfly?"
DR11 0.00 дБ -15.56 дБ 2:27 24-Puccini: Madama Butterfly / Act 2 - "E questo? E questo?"
DR12 -0.77 дБ -20.30 дБ 5:18 25-Puccini: Madama Butterfly / Act 2 - "Che tua madre dovra prenderti in braccio"
DR14 -0.15 дБ -18.67 дБ 2:01 26-Puccini: Madama Butterfly / Act 2 - "Vespa! Rospo maledetto!"
DR10 0.00 дБ -15.48 дБ 2:45 27-Puccini: Madama Butterfly / Act 2 - "Una nave da guerra"
DR15 -1.75 дБ -22.40 дБ 5:39 28-Puccini: Madama Butterfly / Act 2 - "Scuoti quella fronda di ciliegio"
DR15 -1.66 дБ -27.20 дБ 5:34 29-Puccini: Madama Butterfly / Act 2 - "Or vienmi ad adornar"
DR14 -17.19 дБ -36.19 дБ 3:04 30-Puccini: Madama Butterfly / Act 2 - Coro a bocca chiusa (Humming Chorus)
DR13 0.00 дБ -18.77 дБ 6:16 31-Puccini: Madama Butterfly / Act 2 - Intermezzo
DR12 -0.01 дБ -17.75 дБ 1:49 32-Puccini: Madama Butterfly / Act 2 - Fischi d'uccelli dal giardino
DR12 -11.88 дБ -32.94 дБ 2:32 33-Puccini: Madama Butterfly / Act 2 - "Gia il sole!"
DR15 -3.39 дБ -26.53 дБ 2:33 34-Puccini: Madama Butterfly / Act 2 - "Chi sia?"
DR11 -0.20 дБ -17.22 дБ 2:10 35-Puccini: Madama Butterfly / Act 2 - "Io so che alle pene"
DR12 -0.98 дБ -18.87 дБ 1:54 36-Puccini: Madama Butterfly / Act 2 - "Non ve l'avevo detto?"
DR11 0.00 дБ -17.31 дБ 3:10 37-Puccini: Madama Butterfly / Act 2 - "Addio fiorito asil"
DR15 -0.87 дБ -24.05 дБ 1:56 38-Puccini: Madama Butterfly / Act 2 - "Suzuki! Suzuki! Dove sei?"
DR16 -0.01 дБ -26.76 дБ 5:45 39-Puccini: Madama Butterfly / Act 2 - "Tu, Suzuki, che sei tanto biona"
DR11 0.00 дБ -17.75 дБ 2:44 40-Puccini: Madama Butterfly / Act 2 - "Come una mosca prigionera"
DR10 0.00 дБ -15.05 дБ 5:32 41-Puccini: Madama Butterfly / Act 2 - "Con onor muore chi non puo serbar vita con onore"
--------------------------------------------------------------------------------
Количество треков: 41
Реальные значения DR: DR13
Частота: 96000 Гц
Каналов: 2
Разрядность: 24
Битрейт: 2576 кбит/с
Кодек: FLAC
================================================================================

Треклист

Disc 1:
Act I:
1 "... E soffitto e pareti"
2 "Sorride Vostro Onore?"
3 "Dovunque al mondo"
4 "America For Ever"
5 "Ier l'altro il Consolato"
6 "Ecco. Son giunte al sommo del pendio"
7 "Gran ventura"
8 "L'Imperial Commissario"
9 "Vieni, amor mio!"
10 "Ieri son salita tutta sola in segreto alla Missione"
11 "Tutti zitti!"
12 "O Kami! O Kami!"
13 "Cio-cio-san! Cio-cio-san!"
14 "Bimba, bimba, non piangere"
15 "Viene la sera"
16 "Vogliatemi bene"
Act II:
17 "E Izaghi ed Izanami, Sarundasico e Kami"
18 "Un bel dì vedremo"
Disc 2:
1 "C'è. Entrate"
2 "Si sa che aprir la parta"
3 "Udiste?"
4 "Ora a noi. Sedete qui."
5 "Ebbene, che fareste, Madama Butterfly?"
6 "E questo? E questo?"
7 "Che tua madre dovrà prenderti in braccio"
8 "Vespa! Rospo maledetto!"
9 "Una nave da guerra"
10 "Scuoti quella fronda di ciliegio"
11 "Or vienmi ad adornar"
12 Coro a bocca chiusa
13 Intermezzo
14 Fischi d'uccelli dal giardino
15 "Già il sole!"
16 "Chi sia?"
17 "Io so che alle pene"
18 "Non ve l'avevo detto?"
19 "Addio fiorito asil"
20 "Suzuki! Suzuki! Dove sei?"
21 "Tu, Suzuki, che sei tanto biona"
22 "Come una mosca prigionera"
23 "Con onor muore chi non può serbar vita"
[teatrix.ru].t22446.torrent 
Торрент: Зарегистрирован [ 2016-03-20 12:33 ] · 8E35DC0DC84E6AA3B0AAFB3CBDB0B0390FE3B467

Скачать .torrent

Скачать

17 KB

Статус: проверено
Скачан: 1 раз
Размер: 2.5 GB
terms.php



Быстрый ответ

Имя:

      
Для отправки сообщений необходимо включить JavaScript
Показать сообщения:    

Текущее время: 04-Дек 13:14

Часовой пояс: UTC + 3


Вы можете начинать темы
Вы можете отвечать на сообщения
Вы не можете редактировать свои сообщения
Вы не можете удалять свои сообщения
Вы не можете голосовать в опросах
Вы не можете прикреплять файлы к сообщениям
Вы можете скачивать файлы