(Opera) Giacomo Puccini - Madama Butterfly / Джакомо Пуччини - Мадам Баттерфляй (John Barbirolli; Renata Scotto, Carlo Bergonzi, Rolando Panerai, Anna Di Stasio), 1966 - Studio recording / 1994, FLAC (image+.cue), lossless


 

[Цитировать]

Giacomo Puccini - Madama Butterfly / Джакомо Пуччини - Мадам Баттерфляй (John Barbirolli; Renata Scotto, Carlo Bergonzi, Rolando Panerai, Anna Di Stasio)
Жанр: Opera
Страна-производитель диска: CША
Год издания диска: 1994
Издатель (лейбл): EMI Classics
Дата записи: 1966
Аудиокодек: FLAC
Тип рипа: image+.cue
Битрейт аудио: lossless
Продолжительность: 131:19
Источник: релизер (kat)
Наличие сканов в содержимом раздачи: да
Исполнители:
Cio Cio San - Renata Scotto,
Pinkerton - Carlo Bergonzi,
Sharpless - Rolando Panerai,
Suzuki - Anna Di Stasio,
Kate Pinkerton - Silvana Padoan,
Goro - Piero De Palma,
Il principe Yamadori - Giuseppe Morresi,
Lo zio Bonzo - Paolo Montarsolo,
Il commissario imperiale - Mario Rinaudo.
Conductor - John Barbirolli,
Orchestra and Chorus of Teatro dell'Opera di Roma.
Recorded at Rome Opera House, August 1966.

Содержание индексной карты (.CUE)Содержание индексной карты (.CUE) CD 1

REM GENRE Opera
REM DATE 1966
REM DISCID DF10E511
REM COMMENT "ExactAudioCopy v0.99pb4"
CATALOG 1701015661347
PERFORMER "Scotto-Bergonzi-Barbirolli"
TITLE "Puccini - Madama Butterfly [Disc 1]"
FILE "Scotto-Bergonzi-Barbirolli - Puccini - Madama Butterfly [Disc 1].flac" WAVE
TRACK 01 AUDIO
TITLE "Track01"
PERFORMER "Scotto-Bergonzi-Barbirolli"
INDEX 00 00:00:00
INDEX 01 00:00:32
TRACK 02 AUDIO
TITLE "Track02"
PERFORMER "Scotto-Bergonzi-Barbirolli"
INDEX 00 02:16:14
INDEX 01 02:16:17
TRACK 03 AUDIO
TITLE "Track03"
PERFORMER "Scotto-Bergonzi-Barbirolli"
INDEX 00 06:52:33
INDEX 01 06:52:35
TRACK 04 AUDIO
TITLE "Track04"
PERFORMER "Scotto-Bergonzi-Barbirolli"
INDEX 00 10:59:30
INDEX 01 10:59:37
TRACK 05 AUDIO
TITLE "Track05"
PERFORMER "Scotto-Bergonzi-Barbirolli"
INDEX 00 15:02:23
INDEX 01 15:02:25
TRACK 06 AUDIO
TITLE "Track06"
PERFORMER "Scotto-Bergonzi-Barbirolli"
INDEX 01 18:48:50
TRACK 07 AUDIO
TITLE "Track07"
PERFORMER "Scotto-Bergonzi-Barbirolli"
INDEX 01 22:37:20
TRACK 08 AUDIO
TITLE "Track08"
PERFORMER "Scotto-Bergonzi-Barbirolli"
INDEX 01 25:59:17
TRACK 09 AUDIO
TITLE "Track09"
PERFORMER "Scotto-Bergonzi-Barbirolli"
INDEX 01 28:45:60
TRACK 10 AUDIO
TITLE "Track10"
PERFORMER "Scotto-Bergonzi-Barbirolli"
INDEX 01 33:26:72
TRACK 11 AUDIO
TITLE "Track11"
PERFORMER "Scotto-Bergonzi-Barbirolli"
INDEX 00 39:13:28
INDEX 01 39:13:30
TRACK 12 AUDIO
TITLE "Track12"
PERFORMER "Scotto-Bergonzi-Barbirolli"
INDEX 01 43:01:60
TRACK 13 AUDIO
TITLE "Track13"
PERFORMER "Scotto-Bergonzi-Barbirolli"
INDEX 01 46:48:07
TRACK 14 AUDIO
TITLE "Track14"
PERFORMER "Scotto-Bergonzi-Barbirolli"
INDEX 00 54:39:18
INDEX 01 54:48:60
TRACK 15 AUDIO
TITLE "Track15"
PERFORMER "Scotto-Bergonzi-Barbirolli"
INDEX 00 61:53:53
INDEX 01 61:53:55
TRACK 16 AUDIO
TITLE "Track16"
PERFORMER "Scotto-Bergonzi-Barbirolli"
INDEX 01 66:29:57
TRACK 17 AUDIO
TITLE "Track17"
PERFORMER "Scotto-Bergonzi-Barbirolli"
INDEX 01 70:07:02

Содержание индексной карты (.CUE) CD 2

REM GENRE Opera
REM DATE 1966
REM DISCID 01105D13
REM COMMENT "ExactAudioCopy v0.99pb4"
CATALOG 19010529093>6
PERFORMER "Scotto-Bergonzi-Barbirolli"
TITLE "Puccini - Madama Butterfly [Disc 2]"
FILE "Scotto-Bergonzi-Barbirolli - Puccini - Madama Butterfly [Disc 2].flac" WAVE
TRACK 01 AUDIO
TITLE "Track01"
PERFORMER "Scotto-Bergonzi-Barbirolli"
INDEX 00 00:00:00
INDEX 01 00:00:32
TRACK 02 AUDIO
TITLE "Track02"
PERFORMER "Scotto-Bergonzi-Barbirolli"
INDEX 00 03:48:54
INDEX 01 03:48:62
TRACK 03 AUDIO
TITLE "Track03"
PERFORMER "Scotto-Bergonzi-Barbirolli"
INDEX 00 10:02:31
INDEX 01 10:02:32
TRACK 04 AUDIO
TITLE "Track04"
PERFORMER "Scotto-Bergonzi-Barbirolli"
INDEX 00 12:19:07
INDEX 01 12:19:20
TRACK 05 AUDIO
TITLE "Track05"
PERFORMER "Scotto-Bergonzi-Barbirolli"
INDEX 00 15:16:32
INDEX 01 15:16:40
TRACK 06 AUDIO
TITLE "Track06"
PERFORMER "Scotto-Bergonzi-Barbirolli"
INDEX 00 16:53:25
INDEX 01 16:53:32
TRACK 07 AUDIO
TITLE "Track07"
PERFORMER "Scotto-Bergonzi-Barbirolli"
INDEX 00 18:36:65
INDEX 01 18:37:00
TRACK 08 AUDIO
TITLE "Track08"
PERFORMER "Scotto-Bergonzi-Barbirolli"
INDEX 00 21:02:69
INDEX 01 21:03:02
TRACK 09 AUDIO
TITLE "Track09"
PERFORMER "Scotto-Bergonzi-Barbirolli"
INDEX 00 26:08:52
INDEX 01 26:08:60
TRACK 10 AUDIO
TITLE "Track10"
PERFORMER "Scotto-Bergonzi-Barbirolli"
INDEX 01 31:44:50
TRACK 11 AUDIO
TITLE "Track11"
PERFORMER "Scotto-Bergonzi-Barbirolli"
INDEX 00 35:05:42
INDEX 01 35:09:15
TRACK 12 AUDIO
TITLE "Track12"
PERFORMER "Scotto-Bergonzi-Barbirolli"
INDEX 01 42:55:45
TRACK 13 AUDIO
TITLE "Track13"
PERFORMER "Scotto-Bergonzi-Barbirolli"
INDEX 00 45:06:25
INDEX 01 45:06:30
TRACK 14 AUDIO
TITLE "Track14"
PERFORMER "Scotto-Bergonzi-Barbirolli"
INDEX 00 47:45:45
INDEX 01 47:45:47
TRACK 15 AUDIO
TITLE "Track15"
PERFORMER "Scotto-Bergonzi-Barbirolli"
INDEX 01 51:37:27
TRACK 16 AUDIO
TITLE "Track16"
PERFORMER "Scotto-Bergonzi-Barbirolli"
INDEX 01 53:30:72
TRACK 17 AUDIO
TITLE "Track17"
PERFORMER "Scotto-Bergonzi-Barbirolli"
INDEX 00 55:49:74
INDEX 01 55:50:05
TRACK 18 AUDIO
TITLE "Track18"
PERFORMER "Scotto-Bergonzi-Barbirolli"
INDEX 00 61:13:04
INDEX 01 61:13:07
TRACK 19 AUDIO
TITLE "Track19"
PERFORMER "Scotto-Bergonzi-Barbirolli"
INDEX 00 64:19:00
INDEX 01 64:19:02

Лог проверки качества

AUDIOCHECKER v2.0 beta (build 457) - by Dester - opdester@freemail.hu
~~~~~~~~~~~~~~~~~~~~~~~~~~~~~~~~~~
Started at: четверг, 15. 10. 2015. - 1:23.57
2 files found
1 -===- C:\Users\Sony\Videos\Puccini - Madama Butterfly [Scotto, Bergonzi, Panerai; Barbirolli] 1966\Scotto-Bergonzi-Barbirolli - Puccini - Madama Butterfly [Disc 1].flac
Extracted successfully
Conclusion: this track is CDDA with probability 100%
Tempfile successfully deleted.
2 -===- C:\Users\Sony\Videos\Puccini - Madama Butterfly [Scotto, Bergonzi, Panerai; Barbirolli] 1966\Scotto-Bergonzi-Barbirolli - Puccini - Madama Butterfly [Disc 2].flac
Extracted successfully
Conclusion: this track is CDDA with probability 100%
Tempfile successfully deleted.
Finished at: четверг, 15. 10. 2015. - 1:38.28 (operation time: 0:14.31)

Треклист

Disc 1:
Act I:
1. E soffitto... e pareti
2. Questa è la cameriera
3. Dovunque al mondo
4. Quale smania vi prende!
5. Quanto cielo!
6. Gran ventura
7. L'Imperial Commissario
8. Vieni, amor mio!
9. Ieri son salita tutta sola
10. Ed eccoci in famiglia
11. Viene la sera
12. Bimba dagli occhi pieni di malia
13. Vogliatemi bene, un bene piccolino
Act II:
14. E lzaghi ed lzanami
15. C'è. Entrate
16. Non lo sapete
Disc 2:
1. A voi pero
2. Ora a noi
3. E questo? E questo?
4. Che tua madre dovrà
5. Io scendo al piano
6. Vespa! Respo maledetto!
7. Una nave da guerra
8. Scuoti quella fronda di ciliegio
9. Or vienmi ad adornar
10. Coro a bocca chiusa
11. Introduzione / Oh eh! Oh eh!
12. Già il sole!
13. Powera Butterfly
14. Io so che alle sue pene
15. Addio, fiorito asil
16. Glielo dirai?
17. Che vuol da me?
18. Come una mosca prigioniera
19. Con onor muore



Показать сообщения:    

Текущее время: 11-Дек 07:15

Часовой пояс: UTC + 3


Вы не можете начинать темы
Вы не можете отвечать на сообщения
Вы не можете редактировать свои сообщения
Вы не можете удалять свои сообщения
Вы не можете голосовать в опросах
Вы не можете прикреплять файлы к сообщениям
Вы не можете скачивать файлы