(Opera, Vocal) Albert da Costa - Arias (Tenor Operatic Scenes by Meyerbeer, Verdi, Leoncavallo, Bellini, Halevy, Bizet, Gounod, Wagner) - 2011, FLAC (tracks+.cue), lossless


 

[Цитировать]

Albert da Costa - Arias
Жанр: Opera, Vocal
Страна-производитель диска: Австрия
Год издания диска: 2011
Издатель (лейбл): Preiser Records
Дата записи: Various
Аудиокодек: FLAC
Тип рипа: tracks+.cue
Битрейт аудио: lossless
Продолжительность: 71:23
Источник: релизер (Guillermo)
Исполнители:
Albert da Costa, tenor.
American tenor Albert da Costa (1927-1967) had a respectable if unexceptional career. He studied at Juilliard and began as a baritone and later switching to dramatic tenor roles. He first sang at the Met in 1955 as the sailor in Tristan, and until 1962 appeared in a variety of roles including Siegmund, Radames and Manrico. He then appeared many times in Europe, particularly with the Zurich Opera. In December 1959 he was one of three tenors to sing Tristan to Birgit Nilsson\'s Isolde at the Met (the other two were Ramon Vinay and Karl Liebl). His voice was strong and confident in the upper register and it is surprising that he made only one commercial recording, Beethoven\'s Ninth in 1959 with Bruno Walter conducting. Costa was a reliable singer whose career tragically ended in a car accident in Denmark in November 1967.

Лог создания рипа

Exact Audio Copy V1.0 beta 3 from 29. August 2011
EAC extraction logfile from 11. October 2015, 18:45
Artista desconocido / Título desconocido
Used drive : HL-DT-STDVDRAM GH24NSC0 Adapter: 3 ID: 0
Read mode : Secure
Utilize accurate stream : Yes
Defeat audio cache : Yes
Make use of C2 pointers : No
Read offset correction : 6
Overread into Lead-In and Lead-Out : No
Fill up missing offset samples with silence : Yes
Delete leading and trailing silent blocks : No
Null samples used in CRC calculations : Yes
Used interface : Native Win32 interface for Win NT & 2000
Gap handling : Appended to previous track
Used output format : User Defined Encoder
Selected bitrate : 768 kBit/s
Quality : High
Add ID3 tag : No
Command line compressor : C:\Program Files (x86)\Exact Audio Copy\FLAC\FLAC.EXE
Additional command line options : -8 -V -T "ARTIST=%artist%" -T "TITLE=%title%" -T "ALBUM=%albumtitle%" -T "DATE=%year%" -T "TRACKNUMBER=%tracknr%" -T "GENRE=%genre%" -T "PERFORMER=%albuminterpret%" -T "COMPOSER=%composer%" %haslyrics%--tag-from-file=LYRICS="%lyricsfile%"%haslyrics% -T "ALBUMARTIST=%albumartist%" -T "DISCNUMBER=%cdnumber%" -T "TOTALDISCS=%totalcds%" -T "TOTALTRACKS=%numtracks%" -T "COMMENT=%comment%" %source% -o %dest%
TOC of the extracted CD
Track | Start | Length | Start sector | End sector
---------------------------------------------------------
1 | 0:00.00 | 3:07.57 | 0 | 14081
2 | 3:07.57 | 5:37.70 | 14082 | 39426
3 | 8:45.52 | 3:27.35 | 39427 | 54986
4 | 12:13.12 | 1:53.33 | 54987 | 63494
5 | 14:06.45 | 1:53.45 | 63495 | 72014
6 | 16:00.15 | 2:02.60 | 72015 | 81224
7 | 18:03.00 | 3:02.67 | 81225 | 94941
8 | 21:05.67 | 4:37.03 | 94942 | 115719
9 | 25:42.70 | 4:03.10 | 115720 | 133954
10 | 29:46.05 | 5:51.60 | 133955 | 160339
11 | 35:37.65 | 4:06.44 | 160340 | 178833
12 | 39:44.34 | 2:53.43 | 178834 | 191851
13 | 42:38.02 | 2:58.10 | 191852 | 205211
14 | 45:36.12 | 4:21.73 | 205212 | 224859
15 | 49:58.10 | 1:09.20 | 224860 | 230054
16 | 51:07.30 | 2:24.00 | 230055 | 240854
17 | 53:31.30 | 4:06.55 | 240855 | 259359
18 | 57:38.10 | 4:43.12 | 259360 | 280596
19 | 62:21.22 | 2:48.00 | 280597 | 293196
20 | 65:09.22 | 3:29.47 | 293197 | 308918
21 | 68:38.69 | 2:56.63 | 308919 | 322181
Track 1
Filename f:\Users\Guillermo\Desktop\EAC convertidos\01 Pista01.wav
Pre-gap length 0:00:02.00
Peak level 74.9 %
Extraction speed 1.5 X
Track quality 100.0 %
Test CRC 4EAAA084
Copy CRC 4EAAA084
Copy OK
Track 2
Filename f:\Users\Guillermo\Desktop\EAC convertidos\02 Pista02.wav
Pre-gap length 0:00:04.60
Peak level 74.9 %
Extraction speed 1.9 X
Track quality 100.0 %
Test CRC 93209AD0
Copy CRC 93209AD0
Copy OK
Track 3
Filename f:\Users\Guillermo\Desktop\EAC convertidos\03 Pista03.wav
Pre-gap length 0:00:04.56
Peak level 74.9 %
Extraction speed 1.6 X
Track quality 99.8 %
Test CRC 9C4E90C5
Copy CRC 9C4E90C5
Copy OK
Track 4
Filename f:\Users\Guillermo\Desktop\EAC convertidos\04 Pista04.wav
Pre-gap length 0:00:04.60
Peak level 89.1 %
Extraction speed 1.3 X
Track quality 99.8 %
Test CRC 3A780EBB
Copy CRC 3A780EBB
Copy OK
Track 5
Filename f:\Users\Guillermo\Desktop\EAC convertidos\05 Pista05.wav
Pre-gap length 0:00:03.60
Peak level 100.0 %
Extraction speed 1.8 X
Track quality 100.0 %
Test CRC D7F58E9B
Copy CRC D7F58E9B
Copy OK
Track 6
Filename f:\Users\Guillermo\Desktop\EAC convertidos\06 Pista06.wav
Pre-gap length 0:00:04.57
Peak level 89.1 %
Extraction speed 1.8 X
Track quality 100.0 %
Test CRC BB0C6D71
Copy CRC BB0C6D71
Copy OK
Track 7
Filename f:\Users\Guillermo\Desktop\EAC convertidos\07 Pista07.wav
Pre-gap length 0:00:05.06
Peak level 99.9 %
Extraction speed 1.7 X
Track quality 99.8 %
Test CRC C8764ED1
Copy CRC C8764ED1
Copy OK
Track 8
Filename f:\Users\Guillermo\Desktop\EAC convertidos\08 Pista08.wav
Pre-gap length 0:00:04.60
Peak level 89.0 %
Extraction speed 2.4 X
Track quality 100.0 %
Test CRC 174EEF57
Copy CRC 174EEF57
Copy OK
Track 9
Filename f:\Users\Guillermo\Desktop\EAC convertidos\09 Pista09.wav
Pre-gap length 0:00:04.60
Peak level 99.9 %
Extraction speed 2.1 X
Track quality 99.9 %
Test CRC CB1654C6
Copy CRC CB1654C6
Copy OK
Track 10
Filename f:\Users\Guillermo\Desktop\EAC convertidos\10 Pista10.wav
Pre-gap length 0:00:05.57
Peak level 89.1 %
Extraction speed 2.5 X
Track quality 99.9 %
Test CRC 102055BE
Copy CRC 102055BE
Copy OK
Track 11
Filename f:\Users\Guillermo\Desktop\EAC convertidos\11 Pista11.wav
Pre-gap length 0:00:04.60
Peak level 99.9 %
Extraction speed 2.8 X
Track quality 100.0 %
Test CRC 010F9355
Copy CRC 010F9355
Copy OK
Track 12
Filename f:\Users\Guillermo\Desktop\EAC convertidos\12 Pista12.wav
Pre-gap length 0:00:03.58
Peak level 86.2 %
Extraction speed 2.7 X
Track quality 100.0 %
Test CRC 69CF4703
Copy CRC 69CF4703
Copy OK
Track 13
Filename f:\Users\Guillermo\Desktop\EAC convertidos\13 Pista13.wav
Pre-gap length 0:00:04.60
Peak level 100.0 %
Extraction speed 2.2 X
Track quality 99.8 %
Test CRC 1DF8708A
Copy CRC 1DF8708A
Copy OK
Track 14
Filename f:\Users\Guillermo\Desktop\EAC convertidos\14 Pista14.wav
Pre-gap length 0:00:05.60
Peak level 99.9 %
Extraction speed 3.0 X
Track quality 100.0 %
Test CRC 818E989C
Copy CRC 818E989C
Copy OK
Track 15
Filename f:\Users\Guillermo\Desktop\EAC convertidos\15 Pista15.wav
Pre-gap length 0:00:05.60
Peak level 99.9 %
Extraction speed 2.1 X
Track quality 100.0 %
Test CRC 709B6DF0
Copy CRC 709B6DF0
Copy OK
Track 16
Filename f:\Users\Guillermo\Desktop\EAC convertidos\16 Pista16.wav
Pre-gap length 0:00:04.60
Peak level 99.9 %
Extraction speed 2.8 X
Track quality 100.0 %
Test CRC 0298128C
Copy CRC 0298128C
Copy OK
Track 17
Filename f:\Users\Guillermo\Desktop\EAC convertidos\17 Pista17.wav
Pre-gap length 0:00:04.60
Peak level 93.5 %
Extraction speed 3.2 X
Track quality 100.0 %
Test CRC CB1A977E
Copy CRC CB1A977E
Copy OK
Track 18
Filename f:\Users\Guillermo\Desktop\EAC convertidos\18 Pista18.wav
Pre-gap length 0:00:05.57
Peak level 98.8 %
Extraction speed 3.4 X
Track quality 100.0 %
Test CRC 17A6E7C0
Copy CRC 17A6E7C0
Copy OK
Track 19
Filename f:\Users\Guillermo\Desktop\EAC convertidos\19 Pista19.wav
Pre-gap length 0:00:05.16
Peak level 99.3 %
Extraction speed 3.1 X
Track quality 100.0 %
Test CRC CD5C0DE8
Copy CRC CD5C0DE8
Copy OK
Track 20
Filename f:\Users\Guillermo\Desktop\EAC convertidos\20 Pista20.wav
Pre-gap length 0:00:04.60
Peak level 89.0 %
Extraction speed 3.3 X
Track quality 100.0 %
Test CRC B32CD2AF
Copy CRC B32CD2AF
Copy OK
Track 21
Filename f:\Users\Guillermo\Desktop\EAC convertidos\21 Pista21.wav
Pre-gap length 0:00:04.58
Peak level 99.9 %
Extraction speed 3.3 X
Track quality 100.0 %
Test CRC D38C09A8
Copy CRC D38C09A8
Copy OK
No errors occurred
End of status report
==== Log checksum C1196B2DF59E35C35730C39CD4C44E89711CB371827316ACAB71072E450988BA ====

Содержание индексной карты (.CUE)

REM DISCID 2F10C715
REM COMMENT "ExactAudioCopy v1.0b3"
FILE "01 Pista01.wav" WAVE
TRACK 01 AUDIO
FLAGS DCP
INDEX 01 00:00:00
TRACK 02 AUDIO
FLAGS DCP
INDEX 00 03:03:12
FILE "02 Pista02.wav" WAVE
INDEX 01 00:00:00
TRACK 03 AUDIO
FLAGS DCP
INDEX 00 05:33:28
FILE "03 Pista03.wav" WAVE
INDEX 01 00:00:00
TRACK 04 AUDIO
FLAGS DCP
INDEX 00 03:22:65
FILE "04 Pista04.wav" WAVE
INDEX 01 00:00:00
TRACK 05 AUDIO
FLAGS DCP
INDEX 00 01:49:63
FILE "05 Pista05.wav" WAVE
INDEX 01 00:00:00
TRACK 06 AUDIO
FLAGS DCP
INDEX 00 01:49:02
FILE "06 Pista06.wav" WAVE
INDEX 01 00:00:00
TRACK 07 AUDIO
FLAGS DCP
INDEX 00 01:57:55
FILE "07 Pista07.wav" WAVE
INDEX 01 00:00:00
TRACK 08 AUDIO
FLAGS DCP
INDEX 00 02:58:22
FILE "08 Pista08.wav" WAVE
INDEX 01 00:00:00
TRACK 09 AUDIO
FLAGS DCP
INDEX 00 04:32:33
FILE "09 Pista09.wav" WAVE
INDEX 01 00:00:00
TRACK 10 AUDIO
FLAGS DCP
INDEX 00 03:57:42
FILE "10 Pista10.wav" WAVE
INDEX 01 00:00:00
TRACK 11 AUDIO
FLAGS DCP
INDEX 00 05:47:15
FILE "11 Pista11.wav" WAVE
INDEX 01 00:00:00
TRACK 12 AUDIO
FLAGS DCP
INDEX 00 04:03:00
FILE "12 Pista12.wav" WAVE
INDEX 01 00:00:00
TRACK 13 AUDIO
FLAGS DCP
INDEX 00 02:48:73
FILE "13 Pista13.wav" WAVE
INDEX 01 00:00:00
TRACK 14 AUDIO
FLAGS DCP
INDEX 00 02:52:40
FILE "14 Pista14.wav" WAVE
INDEX 01 00:00:00
INDEX 02 01:00:15
TRACK 15 AUDIO
FLAGS DCP
INDEX 00 04:16:28
FILE "15 Pista15.wav" WAVE
INDEX 01 00:00:00
TRACK 16 AUDIO
FLAGS DCP
INDEX 00 01:04:50
FILE "16 Pista16.wav" WAVE
INDEX 01 00:00:00
TRACK 17 AUDIO
FLAGS DCP
INDEX 00 02:19:30
FILE "17 Pista17.wav" WAVE
INDEX 01 00:00:00
TRACK 18 AUDIO
FLAGS DCP
INDEX 00 04:01:12
FILE "18 Pista18.wav" WAVE
INDEX 01 00:00:00
TRACK 19 AUDIO
FLAGS DCP
INDEX 00 04:38:00
FILE "19 Pista19.wav" WAVE
INDEX 01 00:00:00
TRACK 20 AUDIO
FLAGS DCP
INDEX 00 02:43:30
FILE "20 Pista20.wav" WAVE
INDEX 01 00:00:00
TRACK 21 AUDIO
FLAGS DCP
INDEX 00 03:25:03
FILE "21 Pista21.wav" WAVE
INDEX 01 00:00:00

Треклист

1. Vincenzo Bellini - I Puritani: "Credeasi, misera! da me tradita"
2. Fromental Halévy - La Juive: "Rachel, quand tu Seigneur"
Giacomo Meyerbeer:
3. Les Huguenots: "Plus blance que la blanche hermine"
Le Prophète:
4. "Pour Bertha"
5. "Roi du ciel"
6. "Versez que tout respire"
7. L'Africana: "O Paradiso dall'onde uscito"
8. Charles Gounod - Faust "Salut, demeure, chaste et pure"
9. Georges Bizet - Carmen: "La fleur que tu m'avais jetée"
Richard Wagner:
10. Lohengrin: "In fernem Land unnahbar euren Schritten"
11. Die Meistersinger von Nürnberg: "Morgenlich leuchtend"
12. Die Walküre: "Winterstürme wichen dem Wonnemond"
13. Siegfried: "Nothung! Nothung! Neidliches Schwert"
Giuseppe Verdi:
14. Aida: "Se quel guerrier io fossi... Celeste Aida"
Otello:
15. "Esultate!"
16. "Ora e per sempre addio"
17. "Dio! mi potevi scagliar"
18. Amilcare Ponchielli - La Gioconda: "Cielo e mar"
Ruggero Leoncavallo - I Pagliacci:
19. "Un tal gioco"
20. "Recitar!... Vesti la giubba"
21. "No, pagliaccio non son"



Показать сообщения:    

Текущее время: 06-Дек 21:00

Часовой пояс: UTC + 3


Вы не можете начинать темы
Вы не можете отвечать на сообщения
Вы не можете редактировать свои сообщения
Вы не можете удалять свои сообщения
Вы не можете голосовать в опросах
Вы не можете прикреплять файлы к сообщениям
Вы не можете скачивать файлы