(Opera) Menotti - Il Console (Zeani, Fioroni, Colmagro, Casarini - Orchestra & Chorus of the Florence May Festival, Schippers) - 2003, APE (image+.cue) lossless


 

[Цитировать]

Gian Carlo Menotti - Il Console
Жанр: Opera
Страна-производитель диска: USA
Год издания диска: 2003
Издатель (лейбл): Opera D'Oro
Номер по каталогу: OPD-1386
Дата записи: 1972
Аудиокодек: APE
Тип рипа: image+.cue
Битрейт аудио: lossless
Продолжительность: 67'57+60'17
Источник: собственный рип
Наличие сканов в содержимом раздачи: да
Треклист:

CD1

1. Act 1. Tu reviendras et voudras m'enfermer
2. Act 1. Oh, quanto durerà così? (Oh, when will all this sorrow end?)
3. Act 1. Come si chiama?... Magda Sorel (What is your name?... Magda Sorel)
4. Act 1. Aspetta. Fermo. Sono andati, mamma? (Don't move yet. Wait. Have they gone, Mother?)
5. Act 1. Labbra, ditegli addio (Now, O lips, say goodbye)
6. Act 1. Interlude
7. Act 1. Un altro! Un altro!... Tocca a lei (Next! Next!... Go ahead)
8. Act 1. Posso andare dal Console? (May I speak to the Consul?)
9. Act 2. Tu reviendras et voudras m'enfermer
10. Act 2. Ma mai ho visto un pupo più triste di te! (I've never seen a baby so little and sad)
11. Act 2. John, John, perchè quei rami (John, John, why did you bring me all these branches and stones
12. Act 2. Mamma, mamma!... Calmati, Magda (Mother! Mother!... What is it, Magda?)
13. Act 2. Signora Sorel, per lei ho simpatia (Madame Sorel, I like you very much)
14. Act 2. Mamma, perchè taci così mamma? (Mother, why are you so still, Mother?)

CD2

1. Act 2. Interlude
2. Act 2. Ma come ho fatto? (How did you do it?)
3. Act 2. Ipnotismo!... Guardami negli occhi (Hypnotism!... Look into my eyes)
4. Act 2. Anche il più grande artista (Even a great, great artist)
5. Act 2. Dunque è così: che l'uomo nega (To this we've come: that men withhold)
6. Act 2. Carte! Carte! Carte! Ma, quando capirà? (Papers! Papers! Papers! But don't you understand?)
7. Act 2. Lei diventa irragionevole, Signora Sorel (You're being very unreasonable, Mrs. Sorel)
8. Act 3. Quante volte debbo dirlo, signora Sorel! (How often must I tell you, Mrs. Sorel)
9. Act 3. Ha visto per caso la signora Sorel? (Have you seen Mrs. Sorel by any chance?)
10. Act 3. È andata... Poco male. Tornerà domani. (She's gone... Oh well, she'll be back tomorrow)
11. Act 3. Interlude
12. Act 3. Oh, Dio, perdono... Avanti! Avanti! Avanti! (Oh, God, forgive me... All aboard! All aboard!
13. Act 3. La danza comincia... Magda, amor mio (The dance is on... Magda, my dear)
Исполнители:
Gian Carlo Menotti - Il Console (The Consul)
Opera in 3 Acts
Libretto: Gian Carlo Menotti
Magda Sorel - Virginia Zeani, soprano
Mother - Giovanna Fioroni, contralto
John Sorel - Gianluigi Colmagro, baritone
Police Agent - Gianfranco Casarini, bass
Secretary - Joy Davidson, mezzo-soprano
Mr. Kofner - Graziano Del Vivo, bass-baritone
Foreign Woman - Bibiana Goldenthal, soprano
Anna Gomez - Giuliana Matteini, soprano
Vera Boronel - Flora Rafanelli, contralto
Nika Magadoff, the Magician - Nico Castel, tenor
Assan - Giorgio Giorgetti, baritone
Orchestra & Chorus of the Florence May Festival
Thomas Schippers, conductor
Sung in Italian

Лог создания рипа

CD1

Exact Audio Copy V1.0 beta 6 from 9. April 2015
EAC extraction logfile from 21. September 2015, 14:25
Zeani, Colmagro, Fioroni_Orchestra & Chorus Fiorence May Festival, Schippers / Menotti - Il Console, Schippers CD1
Used drive : TSSTcorpCDDVDW SE-208AB Adapter: 1 ID: 2
Read mode : Secure
Utilize accurate stream : Yes
Defeat audio cache : Yes
Make use of C2 pointers : No
Read offset correction : 6
Overread into Lead-In and Lead-Out : No
Fill up missing offset samples with silence : Yes
Delete leading and trailing silent blocks : No
Null samples used in CRC calculations : Yes
Used interface : Native Win32 interface for Win NT & 2000
Used output format : Monkey's Audio Lossless Encoder
Selected bitrate : High Lossless Compression
Quality : High
Add ID3 tag : Yes
Command line compressor : C:\Program Files (x86)\Exact Audio Copy\MAC\MAC.exe
TOC of the extracted CD
Track | Start | Length | Start sector | End sector
---------------------------------------------------------
1 | 0:00.00 | 3:41.43 | 0 | 16617
2 | 3:41.43 | 5:01.22 | 16618 | 39214
3 | 8:42.65 | 3:52.07 | 39215 | 56621
4 | 12:34.72 | 4:21.37 | 56622 | 76233
5 | 16:56.34 | 5:32.55 | 76234 | 101188
6 | 22:29.14 | 5:42.71 | 101189 | 126909
7 | 28:12.10 | 5:28.61 | 126910 | 151570
8 | 33:40.71 | 9:14.00 | 151571 | 193120
9 | 42:54.71 | 1:57.70 | 193121 | 201965
10 | 44:52.66 | 4:44.43 | 201966 | 223308
11 | 49:37.34 | 3:59.19 | 223309 | 241252
12 | 53:36.53 | 3:07.48 | 241253 | 255325
13 | 56:44.26 | 4:27.68 | 255326 | 275418
14 | 61:12.19 | 6:44.66 | 275419 | 305784
Range status and errors
Selected range
Filename D:\EAC\Menotti - Il Console, Schippers CD1.wav
Peak level 96.6 %
Extraction speed 4.2 X
Range quality 100.0 %
Test CRC C8877E59
Copy CRC C8877E59
Copy OK
No errors occurred
AccurateRip summary
Track 1 accurately ripped (confidence 1) [FFC915EC] (AR v1)
Track 2 accurately ripped (confidence 1) [162D61FC] (AR v1)
Track 3 accurately ripped (confidence 1) [9F8E1FBC] (AR v1)
Track 4 accurately ripped (confidence 1) [233A00A0] (AR v1)
Track 5 accurately ripped (confidence 1) [8C19ACA9] (AR v1)
Track 6 accurately ripped (confidence 1) [7A650B2C] (AR v1)
Track 7 accurately ripped (confidence 1) [6926E815] (AR v1)
Track 8 accurately ripped (confidence 1) [8A18AC41] (AR v1)
Track 9 accurately ripped (confidence 1) [D495AFB4] (AR v1)
Track 10 accurately ripped (confidence 1) [08C93479] (AR v1)
Track 11 accurately ripped (confidence 1) [E0649E05] (AR v1)
Track 12 accurately ripped (confidence 1) [E76DDC28] (AR v1)
Track 13 accurately ripped (confidence 1) [EFD1B537] (AR v1)
Track 14 accurately ripped (confidence 1) [0D24D861] (AR v1)
All tracks accurately ripped
End of status report
---- CUETools DB Plugin V2.1.6
[CTDB TOCID: BhjKHFHtVHRLtqHeWmyBt03EO9I-] found
Submit result: BhjKHFHtVHRLtqHeWmyBt03EO9I- has been confirmed
Track | CTDB Status
1 | (2/2) Accurately ripped
2 | (2/2) Accurately ripped
3 | (2/2) Accurately ripped
4 | (2/2) Accurately ripped
5 | (2/2) Accurately ripped
6 | (1/2) Accurately ripped, or (1/2) differs in 20 samples @04:07:66,04:20:60
7 | (2/2) Accurately ripped
8 | (2/2) Accurately ripped
9 | (1/2) Accurately ripped, or (1/2) differs in 4 samples @00:40:58
10 | (1/2) Accurately ripped, or (1/2) differs in 41 samples @03:37:48
11 | (1/2) Accurately ripped, or (1/2) differs in 29 samples @00:17:66
12 | (2/2) Accurately ripped
13 | (1/2) Accurately ripped, or (1/2) differs in 55 samples @00:04:20-00:04:21,01:19:37,03:06:64
14 | (1/2) Accurately ripped, or (1/2) differs in 249 samples @01:53:29,02:06:03,04:52:23,05:12:44-05:12:45,05:34:31-05:34:32,05:35:37-05:35:38,06:14:50-06:14:51
==== Log checksum D2CD49377564DB69BBD81B00CF7162469C5DA65DC9A593FBA43A569BA44972FB ====

CD2

Exact Audio Copy V1.0 beta 6 from 9. April 2015
EAC extraction logfile from 21. September 2015, 14:24
Zeani, Colmagro, Fioroni_Orchestra & Chorus Fiorence May Festival, Schippers / Menotti - Il Console, Schippers CD2
Used drive : TS8XDVDSTRANSCEND Adapter: 1 ID: 1
Read mode : Secure
Utilize accurate stream : Yes
Defeat audio cache : Yes
Make use of C2 pointers : No
Read offset correction : 6
Overread into Lead-In and Lead-Out : No
Fill up missing offset samples with silence : Yes
Delete leading and trailing silent blocks : No
Null samples used in CRC calculations : Yes
Used interface : Native Win32 interface for Win NT & 2000
Used output format : Monkey's Audio Lossless Encoder
Selected bitrate : High Lossless Compression
Quality : High
Add ID3 tag : Yes
Command line compressor : C:\Program Files (x86)\Exact Audio Copy\MAC\MAC.exe
TOC of the extracted CD
Track | Start | Length | Start sector | End sector
---------------------------------------------------------
1 | 0:00.00 | 4:05.49 | 0 | 18423
2 | 4:05.49 | 3:58.00 | 18424 | 36273
3 | 8:03.49 | 4:51.15 | 36274 | 58113
4 | 12:54.64 | 3:21.01 | 58114 | 73189
5 | 16:15.65 | 3:18.69 | 73190 | 88108
6 | 19:34.59 | 5:59.03 | 88109 | 115036
7 | 25:33.62 | 3:03.55 | 115037 | 128816
8 | 28:37.42 | 3:43.67 | 128817 | 145608
9 | 32:21.34 | 5:19.44 | 145609 | 169577
10 | 37:41.03 | 6:36.56 | 169578 | 199333
11 | 44:17.59 | 4:10.28 | 199334 | 218111
12 | 48:28.12 | 3:34.66 | 218112 | 234227
13 | 52:03.03 | 8:14.02 | 234228 | 271279
Range status and errors
Selected range
Filename D:\EAC\Menotti - Il Console, Schippers CD2.wav
Peak level 96.6 %
Extraction speed 4.5 X
Range quality 100.0 %
Test CRC 4A70FB76
Copy CRC 4A70FB76
Copy OK
No errors occurred
AccurateRip summary
Track 1 accurately ripped (confidence 1) [8EDE2F07] (AR v1)
Track 2 accurately ripped (confidence 1) [798C0B55] (AR v1)
Track 3 accurately ripped (confidence 1) [A4F13A7B] (AR v1)
Track 4 accurately ripped (confidence 1) [77CF3AE7] (AR v1)
Track 5 accurately ripped (confidence 1) [C2695211] (AR v1)
Track 6 accurately ripped (confidence 1) [F351345F] (AR v1)
Track 7 accurately ripped (confidence 1) [0E1617D4] (AR v1)
Track 8 accurately ripped (confidence 1) [F6883111] (AR v1)
Track 9 accurately ripped (confidence 1) [4AD88181] (AR v1)
Track 10 accurately ripped (confidence 1) [A11DCA85] (AR v1)
Track 11 accurately ripped (confidence 1) [F61F5CCB] (AR v1)
Track 12 accurately ripped (confidence 1) [1B08D4B5] (AR v1)
Track 13 accurately ripped (confidence 1) [40E85AA3] (AR v1)
All tracks accurately ripped
End of status report
---- CUETools DB Plugin V2.1.6
[CTDB TOCID: VlQNZ3_uejOH.qzzKkQAgHv8Dvg-] found
Submit result: unrecognized or virtual drive
Track | CTDB Status
1 | (2/2) Accurately ripped
2 | (2/2) Accurately ripped
3 | (2/2) Accurately ripped
4 | (2/2) Accurately ripped
5 | (2/2) Accurately ripped
6 | (1/2) Accurately ripped, or (1/2) differs in 49 samples @03:19:52
7 | (1/2) Accurately ripped, or (1/2) differs in 46 samples @00:16:67-00:16:68
8 | (1/2) Accurately ripped, or (1/2) differs in 28 samples @00:41:14,03:06:10
9 | (2/2) Accurately ripped
10 | (1/2) Accurately ripped, or (1/2) differs in 9 samples @02:15:36
11 | (1/2) Accurately ripped, or (1/2) differs in 55 samples @02:50:64,02:55:07
12 | (1/2) Accurately ripped, or (1/2) differs in 61 samples @00:47:45,02:32:70,02:34:33
13 | (1/2) Accurately ripped, or (1/2) differs in 134 samples @02:32:63,03:18:32,03:55:61,03:57:51,04:18:52,08:10:04
==== Log checksum 5BD6262B21810D39BFDB6F35247C1307BA7580E5F87298AAECEA6CD1A5983E8B ====

Содержание индексной карты (.CUE)

CD1

REM GENRE Opera
REM DATE 1972
REM DISCID C70FED0E
REM COMMENT "ExactAudioCopy v1.0b6"
CATALOG 0723724545823
PERFORMER "Zeani, Colmagro, Fioroni_Orchestra & Chorus Fiorence May Festival, Schippers"
TITLE "Menotti - Il Console, Schippers CD1"
FILE "Menotti - Il Console, Schippers CD1.ape" WAVE
TRACK 01 AUDIO
TITLE "Act 1 'Tu reviendras et voudras m'enfermer'"
PERFORMER "Zeani, Colmagro, Fioroni_Orchestra & Chorus Fiorence May Festival, Schippers"
FLAGS DCP
INDEX 01 00:00:00
TRACK 02 AUDIO
TITLE "Oh, quanto durerà cosi?"
PERFORMER "Zeani, Colmagro, Fioroni_Orchestra & Chorus Fiorence May Festival, Schippers"
FLAGS DCP
INDEX 01 03:41:43
TRACK 03 AUDIO
TITLE "Come si chiama?...Magda Sorel"
PERFORMER "Zeani, Colmagro, Fioroni_Orchestra & Chorus Fiorence May Festival, Schippers"
FLAGS DCP
INDEX 01 08:42:65
TRACK 04 AUDIO
TITLE "Aspetta. Fermo. Sono andati, mamma?"
PERFORMER "Zeani, Colmagro, Fioroni_Orchestra & Chorus Fiorence May Festival, Schippers"
FLAGS DCP
INDEX 01 12:34:72
TRACK 05 AUDIO
TITLE "Labbra, ditegli addio"
PERFORMER "Zeani, Colmagro, Fioroni_Orchestra & Chorus Fiorence May Festival, Schippers"
FLAGS DCP
INDEX 01 16:56:34
TRACK 06 AUDIO
TITLE "Interlude; Si ...cosa desidera?"
PERFORMER "Zeani, Colmagro, Fioroni_Orchestra & Chorus Fiorence May Festival, Schippers"
FLAGS DCP
INDEX 01 22:29:14
TRACK 07 AUDIO
TITLE "Un altro! Un altro! ... Tocca a lei"
PERFORMER "Zeani, Colmagro, Fioroni_Orchestra & Chorus Fiorence May Festival, Schippers"
FLAGS DCP
INDEX 01 28:12:10
TRACK 08 AUDIO
TITLE "Posso andare dal Console?"
PERFORMER "Zeani, Colmagro, Fioroni_Orchestra & Chorus Fiorence May Festival, Schippers"
FLAGS DCP
INDEX 01 33:40:71
TRACK 09 AUDIO
TITLE "Act 2 'Tu reviendras et voudras m'enfermer'"
PERFORMER "Zeani, Colmagro, Fioroni_Orchestra & Chorus Fiorence May Festival, Schippers"
FLAGS DCP
INDEX 01 42:54:71
TRACK 10 AUDIO
TITLE "Ma mai ho visto un pupo più triste di te!"
PERFORMER "Zeani, Colmagro, Fioroni_Orchestra & Chorus Fiorence May Festival, Schippers"
FLAGS DCP
INDEX 01 44:52:66
TRACK 11 AUDIO
TITLE "John, john, perchè quei rami"
PERFORMER "Zeani, Colmagro, Fioroni_Orchestra & Chorus Fiorence May Festival, Schippers"
FLAGS DCP
INDEX 01 49:37:34
TRACK 12 AUDIO
TITLE "Mamma, mamma! ...Calmati, Magda"
PERFORMER "Zeani, Colmagro, Fioroni_Orchestra & Chorus Fiorence May Festival, Schippers"
FLAGS DCP
INDEX 01 53:36:53
TRACK 13 AUDIO
TITLE "Signora Sorel, per lei ho simpatia"
PERFORMER "Zeani, Colmagro, Fioroni_Orchestra & Chorus Fiorence May Festival, Schippers"
FLAGS DCP
INDEX 01 56:44:26
TRACK 14 AUDIO
TITLE "Mamma, pechè taci così mamma?"
PERFORMER "Zeani, Colmagro, Fioroni_Orchestra & Chorus Fiorence May Festival, Schippers"
FLAGS DCP
INDEX 01 61:12:19

CD2

REM GENRE Opera
REM DATE 1972
REM DISCID C50E210D
REM COMMENT "ExactAudioCopy v1.0b6"
CATALOG 0723724545823
PERFORMER "Zeani, Colmagro, Fioroni_Orchestra & Chorus Fiorence May Festival, Schippers"
TITLE "Menotti - Il Console, Schippers CD2"
FILE "Menotti - Il Console, Schippers CD2.ape" WAVE
TRACK 01 AUDIO
TITLE "Act 2 cont. Interlude. Come ha detto che si chiama?"
PERFORMER "Zeani, Colmagro, Fioroni_Orchestra & Chorus Fiorence May Festival, Schippers"
FLAGS DCP
INDEX 01 00:00:00
TRACK 02 AUDIO
TITLE "Ma come ho fatto?"
PERFORMER "Zeani, Colmagro, Fioroni_Orchestra & Chorus Fiorence May Festival, Schippers"
FLAGS DCP
INDEX 01 04:05:49
TRACK 03 AUDIO
TITLE "Ipnotismo!... Guardami negli occhi"
PERFORMER "Zeani, Colmagro, Fioroni_Orchestra & Chorus Fiorence May Festival, Schippers"
FLAGS DCP
INDEX 01 08:03:49
TRACK 04 AUDIO
TITLE "Anche il più grande artista"
PERFORMER "Zeani, Colmagro, Fioroni_Orchestra & Chorus Fiorence May Festival, Schippers"
FLAGS DCP
INDEX 01 12:54:64
TRACK 05 AUDIO
TITLE "Dunque è cosi: che l'uomo nega"
PERFORMER "Zeani, Colmagro, Fioroni_Orchestra & Chorus Fiorence May Festival, Schippers"
FLAGS DCP
INDEX 01 16:15:65
TRACK 06 AUDIO
TITLE "Carte! Carte! Carte! Ma quando capirà?"
PERFORMER "Zeani, Colmagro, Fioroni_Orchestra & Chorus Fiorence May Festival, Schippers"
FLAGS DCP
INDEX 01 19:34:59
TRACK 07 AUDIO
TITLE "Lei diventa irragionevole, Signora Sorel"
PERFORMER "Zeani, Colmagro, Fioroni_Orchestra & Chorus Fiorence May Festival, Schippers"
FLAGS DCP
INDEX 01 25:33:62
TRACK 08 AUDIO
TITLE "Act 3. Quante volte debbo dirlo, signora Sorel!"
PERFORMER "Zeani, Colmagro, Fioroni_Orchestra & Chorus Fiorence May Festival, Schippers"
FLAGS DCP
INDEX 01 28:37:42
TRACK 09 AUDIO
TITLE "Ha visto per caso la signora Sorel?"
PERFORMER "Zeani, Colmagro, Fioroni_Orchestra & Chorus Fiorence May Festival, Schippers"
FLAGS DCP
INDEX 01 32:21:34
TRACK 10 AUDIO
TITLE "È andata...Poco male. Tornerà domani"
PERFORMER "Zeani, Colmagro, Fioroni_Orchestra & Chorus Fiorence May Festival, Schippers"
FLAGS DCP
INDEX 01 37:41:03
TRACK 11 AUDIO
TITLE "Interlude; Non volevo far questo"
PERFORMER "Zeani, Colmagro, Fioroni_Orchestra & Chorus Fiorence May Festival, Schippers"
FLAGS DCP
INDEX 01 44:17:59
TRACK 12 AUDIO
TITLE "Oh, Dio perdono...Avanti! Avanti! Avanti!"
PERFORMER "Zeani, Colmagro, Fioroni_Orchestra & Chorus Fiorence May Festival, Schippers"
FLAGS DCP
INDEX 01 48:28:12
TRACK 13 AUDIO
TITLE "La danza comincia...Magda, amor mio"
PERFORMER "Zeani, Colmagro, Fioroni_Orchestra & Chorus Fiorence May Festival, Schippers"
FLAGS DCP
INDEX 01 52:03:03
Доп. информация:
The three acts opera Il Console is Menotti's first full-length opera.
Its first performance was on March 1, 1950 in Philadelphia.
The opera opened two weeks later in New York City where it enjoyed a successful opening run of nearly eight months.
For The Consul, Menotti won the 1950 Pulitzer Prize for Music and also the 1950 New York Drama Critics' Circle award for Best Musical.
Synopsis
Place: An unidentified European totalitarian country.
Act 1
Scene 1
The political dissident John Sorel is on the run from the secret police. At his home, his wife Magda and his mother hide him. The police arrive and search, but cannot find him. John says that he will escape to the border, and tells Magda to apply for a visa to leave the country. He will wait to cross the border until his wife, mother and child are safe.
Scene 2: The consul's office
Many people are waiting to obtain visas. Magda applies and joins the crowd, but the secretary cannot promise anything.
Act 2
Scene 1
The child is ill, and John's mother sings to comfort the child. The police try to extract information from Magda on her husband's compatriots, but she refuses. A message then arrives from John urging Magda to hurry with the visa.
Scene 2: The consulate
Magda is desperate to see the consul. A magician, waiting for a visa, attempts to impress the secretary by performing magic tricks and hypnotizing the rest of the room into believing they are at a ball, but he only ends up frightening her. The secretary says that she may see him once an "important visitor" has finished his business. This visitor proves to be the chief of police. Magda's fears increase.
Act 3
Scene 1
Magda's child and mother-in-law have died. At the consul's office, Magda learns that John is planning to risk his life and return for her. Magda thinks of suicide to try to protect John, and leaves the consulate. As the office is about to shut down for the day, John suddenly arrives, but with the police in pursuit. The police capture John, and the secretary gets on the phone to try to contact Magda.
Scene 2
Despondent, and with visions of her past crowding her mind, Magda turns on the gas in the oven to kill herself. Her telephone then rings, the secretary trying in vain to contact her.



Показать сообщения:    

Текущее время: 05-Дек 11:33

Часовой пояс: UTC + 3


Вы не можете начинать темы
Вы не можете отвечать на сообщения
Вы не можете редактировать свои сообщения
Вы не можете удалять свои сообщения
Вы не можете голосовать в опросах
Вы не можете прикреплять файлы к сообщениям
Вы не можете скачивать файлы