Моцарт - Мнимая садовница / Mozart - La finta giardiniera (K. 196) (Erin Morley) (Emmanuelle Haim /Эммануэль Аим) (David Lescot) [2014, Opera, HDRip-AVC 720p] Sub [Русские • Elena-Rybka] [Eng, Ger, Fre, Ita.]


 

[Цитировать]

-Оперный театр Лилля (Франция) представляет
ВОЛЬФГАНГ Амадей МОЦАРТ
27 января (January 27,) 1756 — 5 декабря (December 5,) 1791
»«МНИМАЯ САДОВНИЦА»«
Либретто Джузеппе Петроселлини (Giuseppe Petrosellini, 1728-1799)
-- РЕЖИССЁР Давид ЛЕСКО David Lescot
Год записи: 2014
Год выхода: 2015
Язык: Итальянский
ПЕРЕВОД © Elena-Rybka
Субтитры/Subtitles: РУССКИЕ,
English, French, German, Italian
Продолжительность: 176 min.
ДОН АНХИЗЕ Карло АЛЛЕМАНО Carlo Allemano
АРМИНДА Мари-Аделина АНРИ Marie-Adeline Henry
КАВАЛЕР РАМИРО Мари-Клод ШАППЮИ Marie-Claude Chappuis
МАРКИЗА ВИОЛАНТА / САНДРИНА Эрин МОРЛИ Erin Morley
РОБЕРТО / НАРДО Николай БОРЧЕВ Nikolay Borchev
ГРАФ БЕЛЬФЬОРЕ Энеа СКАЛА Enea Scala
СЕРПЕТТА Мария-Вирджиния САВАСТАНО Maria-Virginia Savastano
АНСАМБЛЬ Le Concert d`Astrée
ДИРИЖЁР Эммануэль АИМ Emmanuelle Haïm

Качество видео: HDRip-AVC
Исходник: BDRip 1080 by Vilboa
♫ Sample ♫
Формат/Контейнер: MKV
Видео кодек: H.264
Аудио кодек: DTS
Видео поток: 1280x720, 4000 kbps, 29,970 fps.
Аудио поток: Italian, 1509 kbps, 48,0 KHz, 24 bit, 2 ch

Скриншоты

MediaInfo

-

x264 log


avs [info]: 1280x720p 1:1 @ 30000/1001 fps (cfr)
x264 [info]: using SAR=1/1
x264 [info]: using cpu capabilities: MMX2 SSE2Fast LZCNT
x264 [info]: profile High, level 4.1
x264 [info]: frame I:2046 Avg QP:14.02 size: 85230
x264 [info]: frame P:139940 Avg QP:15.69 size: 27656
x264 [info]: frame B:175088 Avg QP:18.32 size: 7107
x264 [info]: consecutive B-frames: 17.1% 24.9% 8.9% 49.1%
x264 [info]: mb I I16..4: 8.6% 72.8% 18.6%
x264 [info]: mb P I16..4: 4.6% 12.9% 1.8% P16..4: 36.3% 23.2% 11.4% 0.0% 0.0% skip: 9.9%
x264 [info]: mb B I16..4: 0.5% 0.8% 0.1% B16..8: 40.2% 8.8% 1.9% direct: 4.5% skip:43.2% L0:40.9% L1:49.0% BI:10.1%
x264 [info]: 8x8 transform intra:66.6% inter:73.1%
x264 [info]: direct mvs spatial:90.7% temporal:9.3%
x264 [info]: coded y,uvDC,uvAC intra: 48.0% 74.9% 43.8% inter: 21.1% 32.5% 4.2%
x264 [info]: i16 v,h,dc,p: 60% 16% 10% 13%
x264 [info]: i8 v,h,dc,ddl,ddr,vr,hd,vl,hu: 14% 8% 29% 6% 8% 10% 8% 8% 8%
x264 [info]: i4 v,h,dc,ddl,ddr,vr,hd,vl,hu: 17% 9% 14% 7% 12% 13% 10% 9% 8%
x264 [info]: i8c dc,h,v,p: 52% 18% 20% 10%
x264 [info]: Weighted P-Frames: Y:1.8% UV:0.9%
x264 [info]: ref P L0: 64.6% 7.7% 18.6% 9.0% 0.1%
x264 [info]: ref B L0: 87.1% 11.1% 1.7%
x264 [info]: ref B L1: 95.6% 4.4%
x264 [info]: kb/s:3999.25
encoded 317074 frames, 9.47 fps, 3999.25 kb/s
Final statistics
-
General
Unique ID : 194745109547491799145456170750383359456 (0x92828B367AE0BE9E9D005213D58A05E0)
Complete name : Mozart - La finta giardiniera (Opera de Lille) 2014.mkv
Format : Matroska
Format version : Version 4 / Version 2
File size : 6.79 GiB
Duration : 2h 56mn
Overall bit rate : 5 511 Kbps
Encoded date : UTC 2015-10-12 15:46:26
Writing application : mkvmerge v8.3.0 ('Over the Horizon') 32bit
Writing library : libebml v1.3.1 + libmatroska v1.4.2
Video
ID : 1
Format : AVC
Format/Info : Advanced Video Codec
Format profile : High@L4.1
Format settings, CABAC : Yes
Format settings, ReFrames : 4 frames
Codec ID : V_MPEG4/ISO/AVC
Duration : 2h 56mn
Bit rate : 4 000 Kbps
Width : 1 280 pixels
Height : 720 pixels
Display aspect ratio : 16:9
Frame rate mode : Constant
Frame rate : 29.970 fps
Color space : YUV
Chroma subsampling : 4:2:0
Bit depth : 8 bits
Scan type : Progressive
Bits/(Pixel*Frame) : 0.145
Stream size : 4.79 GiB (71%)
Writing library : x264 core 146 r2538 121396c
Encoding settings : cabac=1 / ref=3 / deblock=1:0:0 / analyse=0x3:0x113 / me=umh / subme=9 / psy=1 / psy_rd=1.00:0.00 / mixed_ref=1 / me_range=32 / chroma_me=1 / trellis=1 / 8x8dct=1 / cqm=0 / deadzone=21,11 / fast_pskip=1 / chroma_qp_offset=-2 / threads=4 / lookahead_threads=1 / sliced_threads=0 / nr=0 / decimate=1 / interlaced=0 / bluray_compat=0 / constrained_intra=0 / bframes=3 / b_pyramid=2 / b_adapt=1 / b_bias=0 / direct=3 / weightb=1 / open_gop=0 / weightp=2 / keyint=300 / keyint_min=29 / scenecut=40 / intra_refresh=0 / rc_lookahead=60 / rc=2pass / mbtree=1 / bitrate=4000 / ratetol=1.0 / qcomp=0.60 / qpmin=10 / qpmax=51 / qpstep=4 / cplxblur=20.0 / qblur=0.5 / vbv_maxrate=50000 / vbv_bufsize=62500 / nal_hrd=none / filler=0 / ip_ratio=1.40 / aq=1:1.00
Language : English
Default : Yes
Forced : No
Audio
ID : 2
Format : DTS
Format/Info : Digital Theater Systems
Mode : 16
Format settings, Endianness : Big
Codec ID : A_DTS
Duration : 2h 56mn
Bit rate mode : Constant
Bit rate : 1 509 Kbps
Channel(s) : 6 channels
Channel positions : Front: L C R, Side: L R, LFE
Sampling rate : 48.0 KHz
Bit depth : 16 bits
Compression mode : Lossy
Stream size : 1.86 GiB (27%)
Language : Italian
Default : Yes
Forced : No
Text #1
ID : 3
Format : UTF-8
Codec ID : S_TEXT/UTF8
Codec ID/Info : UTF-8 Plain Text
Language : Russian
Default : Yes
Forced : No
Text #2
ID : 4
Format : UTF-8
Codec ID : S_TEXT/UTF8
Codec ID/Info : UTF-8 Plain Text
Language : English
Default : No
Forced : No
Text #3
ID : 5
Format : UTF-8
Codec ID : S_TEXT/UTF8
Codec ID/Info : UTF-8 Plain Text
Language : German
Default : No
Forced : No
Text #4
ID : 6
Format : UTF-8
Codec ID : S_TEXT/UTF8
Codec ID/Info : UTF-8 Plain Text
Language : French
Default : No
Forced : No
Text #5
ID : 7
Format : UTF-8
Codec ID : S_TEXT/UTF8
Codec ID/Info : UTF-8 Plain Text
Language : Italian
Default : No
Forced : No



Показать сообщения:    

Текущее время: 09-Дек 22:19

Часовой пояс: UTC + 3


Вы не можете начинать темы
Вы не можете отвечать на сообщения
Вы не можете редактировать свои сообщения
Вы не можете удалять свои сообщения
Вы не можете голосовать в опросах
Вы не можете прикреплять файлы к сообщениям
Вы не можете скачивать файлы