(Classical) Bela Bartok - String Quartets Nos. 1 & 5 - Meta4 - 2014, FLAC (image+.cue) lossless


 

[Цитировать]

Béla Bartók - String Quartets Nos. 1 & 5 - Meta4
Жанр: Classical
Страна-производитель диска: Germany
Год издания диска: 2014
Издатель (лейбл): Hänssler Classic
Номер по каталогу: CD 98.036
Дата записи: 2014
Аудиокодек: FLAC
Тип рипа: image+.cue
Битрейт аудио: lossless
Продолжительность: 62:35
Источник: собственный рип
Наличие сканов в содержимом раздачи: да
Треклист:
Béla Bartók (1881-1945)
[1]-[3] String Quartet No.1, Op.7 Sz40
[4]-[8] String Quartet No.5, Sz102
Исполнители:
Meta4
Antti Tikkanen violin
Minna Pensola violin
Atte Kilpeläinen viola
Tomas Djupsjöbacka cello

Лог создания рипа

Exact Audio Copy V1.0 beta 3 from 29. August 2011
EAC extraction logfile from 16. March 2015, 23:35
Meta4 / Bartok - String Quartets Nos. 1, 5
Used drive : HL-DT-STDVDRAM GU70N Adapter: 0 ID: 0
Read mode : Secure
Utilize accurate stream : Yes
Defeat audio cache : Yes
Make use of C2 pointers : No
Read offset correction : 48
Overread into Lead-In and Lead-Out : No
Fill up missing offset samples with silence : Yes
Delete leading and trailing silent blocks : No
Null samples used in CRC calculations : Yes
Used interface : Native Win32 interface for Win NT & 2000
Used output format : User Defined Encoder
Selected bitrate : 128 kBit/s
Quality : High
Add ID3 tag : No
Command line compressor : C:\Program Files (x86)\Exact Audio Copy\Flac\flac.exe
Additional command line options : -V -8 -T "Date=%year%" -T "Genre=%genre%" %source%
TOC of the extracted CD
Track | Start | Length | Start sector | End sector
---------------------------------------------------------
1 | 0:00.00 | 9:13.46 | 0 | 41520
2 | 9:13.46 | 10:56.42 | 41521 | 90762
3 | 20:10.13 | 11:04.22 | 90763 | 140584
4 | 31:14.35 | 7:22.20 | 140585 | 173754
5 | 38:36.55 | 6:22.61 | 173755 | 202465
6 | 44:59.41 | 5:03.29 | 202466 | 225219
7 | 50:02.70 | 5:16.44 | 225220 | 248963
8 | 55:19.39 | 7:15.45 | 248964 | 281633
Range status and errors
Selected range
Filename C:\temp\Bartok - String Quartets Nos. 1 & 5 - Meta4\Bartok - String Quartets Nos. 1, 5.wav
Peak level 98.8 %
Extraction speed 2.1 X
Range quality 100.0 %
Test CRC D7636927
Copy CRC D7636927
Copy OK
No errors occurred
AccurateRip summary
Track 1 not present in database
Track 2 not present in database
Track 3 not present in database
Track 4 not present in database
Track 5 not present in database
Track 6 not present in database
Track 7 not present in database
Track 8 not present in database
None of the tracks are present in the AccurateRip database
End of status report
==== Log checksum 6A149DD51FCC8CDBC86151F9900EEC548FA18B0B31380D3DEC9CC954FE731F4A ====



Показать сообщения:    

Текущее время: 09-Дек 22:28

Часовой пояс: UTC + 3


Вы не можете начинать темы
Вы не можете отвечать на сообщения
Вы не можете редактировать свои сообщения
Вы не можете удалять свои сообщения
Вы не можете голосовать в опросах
Вы не можете прикреплять файлы к сообщениям
Вы не можете скачивать файлы