Озеро Тахо / Te acuerdas de Lake Tahoe? / Lake Tahoe (Фернандо Эймбке / Fernando Eimbcke) [2008, Мексика, Драма, DVDRip] VO + Sub Rus + Original Spa


Статистика раздачи [Обновить пиров]
Размер:  988 MB   |    Зарегистрирован:  8 месяцев 14 дней   |    Скачан:  0 раз

Полного источника не было: Никогда

 
   
 
 
 

[Цитировать]

Озеро Тахо / Te acuerdas de Lake Tahoe? / Lake Tahoe
Страна: Мексика
Жанр: Драма
Год выпуска: 2008
Продолжительность: 01:21:07
Перевод: Одноголосый закадровый
Cубтитры: русские
Оригинальная аудиодорожка: испанский
Режиссер: Фернандо Эймбке / Fernando Eimbcke
В ролях: Диего Катаньо / Diego Cataño, Эктор Эррера / Hector Herrera, Даниэла Валентин / Daniela Valentine, Хуан Карлос Лара / Juan Carlos Lara II, Емил Сефами / Yemil Sefani и др.
Описание: Шестнадцатилетний Хуан садится в машину, намереваясь убежать куда-нибудь - подальше от семейных проблем. Его побег заканчивается у телеграфного столба за несколько километров от дома. Хуану ничего другого не остается, кроме как найти кого-нибудь, кто сможет починить разбитую машину. Он идет в ближайший сонный городок, где царит круглосуточная сиеста, и там находит странноватого механика. Лежа в гамаке, тот делает заключение, что одна важная деталь вышла из строя, и ее следует заменить - нужно только найти эту самую деталь. Хуан отправляется на поиски. Он находит магазинчик запчастей, которым заправляет припанкованная девчонка. Ей очень хочется на концерт, но не с кем оставить ребенка. Она абсолютно ничего не понимает в автомобилях, и им вдвоем приходится дождаться того, кто разбирается. Им оказывается Давид. Он много чего умеет, но по-настоящему его увлекает только кун-фу - он готов часами пересматривать китайские фильмы о боевых искусствах и рад встретить человека, которому можно про это рассказать. Прежде чем Давид приступит к ремонту, Хуану придется провести с ним остаток дня и узнать о кун-фу практически все. Встретив всех этих странных, непохожих друг на друга людей, Хуан начинает понимать, что жизнь – довольно-таки странная штука.
Сэмпл: http://multi-up.com/1071470
Качество видео: DVDRip
Формат видео: AVI
Видео: 704x292 (2.41:1), 29.970 fps, XviD build 46 ~1236 kbps avg, 0.20 bit/pixel
Аудио 1: 48 kHz, AC3 Dolby Digital, 2/0 (L,R) ch, ~224.00 kbps avg(Русский)
Аудио 2: 48 kHz, AC3 Dolby Digital, 3/2 (L,C,R,l,r) + LFE ch, ~224.00 kbps avg(Испанский)
Формат субтитров: softsub (SRT)
Доп. информация о субтитрах: русские внешние (tresor)

MediaInfo

Общее
Полное имя : F:\С моей озвучкой\Озеро Тахо\Lake Tahoe.avi
Формат : AVI
Формат/Информация : Audio Video Interleave
Размер файла : 988 Мбайт
Продолжительность : 1 ч. 21 м.
Общий поток : 1703 Кбит/сек
Название фильма : Lake Tahoe (Audio Latino) 2008 DVDRIP Xvid-Ac3 5.1 (704x292)
Режиссёр : www.Estrenos-Sub.com
Программа кодирования : VirtualDubModRus 1.5.10.2 (build 2542/release)
Библиотека кодирования : VirtualDubMod build 2542/release
Формат оригинала/Имя : DVD_VOLUME
Видео
Идентификатор : 0
Формат : MPEG-4 Visual
Профиль формата : Simple@L3
Параметр BVOP формата : Нет
Параметр QPel формата : Нет
Параметр GMC формата : Без точки перехода
Параметр матрицы формата : Default (H.263)
Идентификатор кодека : XVID
Идентификатор кодека/Подсказка : XviD
Продолжительность : 1 ч. 21 м.
Битрейт : 1237 Кбит/сек
Ширина : 704 пикселя
Высота : 292 пикселя
Соотношение сторон : 2,40:1
Частота кадров : 29,970 кадров/сек
Цветовое пространство : YUV
Субдискретизация насыщенности : 4:2:0
Битовая глубина : 8 бит
Тип развёртки : Прогрессивная
Метод сжатия : С потерями
Бит/(Пиксели*Кадры) : 0.201
Размер потока : 718 Мбайт (73%)
Библиотека кодирования : XviD 1.1.2 (UTC 2006-11-01)
Аудио #1
Идентификатор : 1
Формат : AC-3
Формат/Информация : Audio Coding 3
Расширение режима : CM (complete main)
Параметр Endianness формата : Big
Идентификатор кодека : 2000
Продолжительность : 1 ч. 21 м.
Вид битрейта : Постоянный
Битрейт : 224 Кбит/сек
Каналы : 2 канала
Расположение каналов : Front: L R
Частота : 48,0 КГц
Битовая глубина : 16 бит
Метод сжатия : С потерями
Размер потока : 130 Мбайт (13%)
Выравнивание : Разделение по промежуткам
Продолжительность промежутка : 33 мс. (1,00 видеокадр)
Время предзагрузки промежутка : 500 мс.
Аудио #2
Идентификатор : 2
Формат : AC-3
Формат/Информация : Audio Coding 3
Расширение режима : CM (complete main)
Параметр Endianness формата : Big
Идентификатор кодека : 2000
Продолжительность : 1 ч. 21 м.
Вид битрейта : Постоянный
Битрейт : 224 Кбит/сек
Каналы : 6 каналов
Расположение каналов : Front: L C R, Side: L R, LFE
Частота : 48,0 КГц
Битовая глубина : 16 бит
Метод сжатия : С потерями
Размер потока : 130 Мбайт (13%)
Выравнивание : Разделение по промежуткам
Продолжительность промежутка : 33 мс. (1,00 видеокадр)
Время предзагрузки промежутка : 500 мс.

Скриншоты

[teatrix.ru].t22456.torrent 
Торрент: Зарегистрирован [ 2016-03-20 12:33 ] · D1A0F8DF745BB5E8D86BCA31C5516BBB8F678CA3

Скачать .torrent

Скачать

20 KB

Статус: проверено
Скачан: 0 раз
Размер: 988 MB
terms.php



Быстрый ответ

Имя:

      
Для отправки сообщений необходимо включить JavaScript
Показать сообщения:    

Текущее время: 03-Дек 14:34

Часовой пояс: UTC + 3


Вы можете начинать темы
Вы можете отвечать на сообщения
Вы не можете редактировать свои сообщения
Вы не можете удалять свои сообщения
Вы не можете голосовать в опросах
Вы не можете прикреплять файлы к сообщениям
Вы можете скачивать файлы