Музыкальная кулинария / Musikalisch Kulinarisch (8 серий)(Georg Madeja / Георг Мадейя) [2014, Документальный, Музыка, DVB-AVC]


Статистика раздачи [Обновить пиров]
Размер:  6.76 GB   |    Зарегистрирован:  8 месяцев 18 дней   |    Скачан:  0 раз

Полного источника не было: Никогда

 
   
 
 
 

[Цитировать]

Музыкальная кулинария / Musikalisch Kulinarisch
Дата/Год выпуска: 2014
Страна: Австрия
Жанр: Документальный, Музыка
Продолжительность: 00:50:00x8
Перевод: Профессиональный (дублированный)
Доп. инфо о переводе: Культура
Русские субтитры: нет
Оригинальная аудиодорожка: нет
Режиссер: Georg Madeja / Георг Мадейя
Описание: Цикл документальных фильмов о Моцарте, Берлиозе, Гайдне, Штраусах, Россини, Пуччини, Вивальди и Верди. Это необычное путешествие по местам, где родились и блистали эти композиторы. Авторы фильма находят с первого взгляда не очевидную связь между творчеством великих музыкантов и кулинарными традициями тех регионов, в которых они жили.
От простых блюд деревенской кухни до изысканных гастрономических шедевров - кулинарные предпочтения композиторов такие же разные, как и сама их музыка.
Сэмпл: http://sendfile.su/1165132
Качество видео: DVB-AVC
Формат/Контейнер: MKV
Видео кодек: H.264
Аудио кодек: MP2
Видео поток: 720x576 (4:3) 50fps ~2500kbps (1218 Kbps для первой серии)
Аудио поток: 48000Hz 2ch mono 192kbps (160 Kbps для первой серии)

Список выпусков/серий

01.Пуччини и Лукка.mkv 504.97 MB
02.Джоаккино Россини.mkv 884.91 MB
03.Верди и Эмилия-Романия.mkv 1.00 GB
04.Вивальди и Венеция.mkv 870.53 MB
05.Йозеф Гайдн.mkv 587.43 MB
06.Вольфганг Амадей Моцарти Лоренцо да Понте.mkv 991.56 MB
07.Венские Штраусы.mkv 1.00 GB
08.Гектор Берлиоз. Жизнь артиста.mkv 1.00 GB

MediaInfo

ormat                         : Matroska
Format version : Version 4 / Version 2
File size : 587 MiB
Duration : 29mn 48s
Overall bit rate : 2 755 Kbps
Encoded date : UTC 2014-08-07 13:00:11
Writing application : mkvmerge v6.1.0 ('Old Devil') built on Mar 4 2013 09:10:42
Writing library : libebml v1.3.0 + libmatroska v1.4.0
Video
ID : 1
Format : AVC
Format/Info : Advanced Video Codec
Format profile : Main@L3.0
Format settings, CABAC : Yes
Format settings, ReFrames : 3 frames
Format settings, GOP : M=4, N=28
Codec ID : V_MPEG4/ISO/AVC
Duration : 29mn 48s
Bit rate : 2 508 Kbps
Width : 720 pixels
Height : 576 pixels
Display aspect ratio : 4:3
Original display aspect ratio : 4:3
Frame rate mode : Constant
Frame rate : 25.000 fps
Standard : Component
Color space : YUV
Chroma subsampling : 4:2:0
Bit depth : 8 bits
Scan type : Progressive
Bits/(Pixel*Frame) : 0.242
Stream size : 535 MiB (91%)
Default : Yes
Forced : No
Color primaries : BT.601 PAL
Transfer characteristics : BT.470 System B, BT.470 System G
Matrix coefficients : BT.601
Audio
ID : 2
Format : MPEG Audio
Format version : Version 1
Format profile : Layer 2
Codec ID : A_MPEG/L2
Codec ID/Hint : MP2
Duration : 29mn 48s
Bit rate mode : Constant
Bit rate : 192 Kbps
Channel(s) : 2 channels
Sampling rate : 48.0 KHz
Compression mode : Lossy
Delay relative to video : 4ms
Stream size : 40.9 MiB (7%)
Default : Yes
Forced : No

Скриншоты

[teatrix.ru].t22459.torrent 
Торрент: Зарегистрирован [ 2016-03-20 12:33 ] · A7C44BB2A47A8FFA30C9A696F5A98D9FE09DB243

Скачать .torrent

Скачать

35 KB

Статус: проверено
Скачан: 0 раз
Размер: 6.76 GB
terms.php



Быстрый ответ

Имя:

      
Для отправки сообщений необходимо включить JavaScript
Показать сообщения:    

Текущее время: 08-Дек 07:06

Часовой пояс: UTC + 3


Вы можете начинать темы
Вы можете отвечать на сообщения
Вы не можете редактировать свои сообщения
Вы не можете удалять свои сообщения
Вы не можете голосовать в опросах
Вы не можете прикреплять файлы к сообщениям
Вы можете скачивать файлы