(Opera) Giuseppe Verdi - Alzira / Джузеппе Верди - Альзира (Fabio Luisi; Marina Mescheriakova, Paolo Gavanelli, Ramón Vargas, Torsten Kerl), 1999 - Studio recording / 2001, FLAC (tracks+.cue), lossless


 

[Цитировать]

Giuseppe Verdi - Alzira / Джузеппе Верди - Альзира (Fabio Luisi; Marina Mescheriakova, Paolo Gavanelli, Ramón Vargas, Torsten Kerl)
Жанр: Opera
Страна-производитель диска: CША
Год издания диска: 2001
Издатель (лейбл): Philips
Дата записи: 1999
Аудиокодек: FLAC
Тип рипа: tracks+.cue
Битрейт аудио: lossless
Продолжительность: 91:20
Источник: kat
Исполнители:
Alzira - Marina Mescheriakova,
Gusmano - Paolo Gavanelli,
Zamoro - Ramón Vargas,
Zuma - Iana Iliev,
Ovando - Jovo Reljin,
Ataliba - Wolfgang Barta,
Otumbo - Torsten Kerl,
Alvaro - Slobodan Stankovic.
Conductor - Fabio Luisi,
Orchestre de la Suisse Romande,
Chorus of Grand Théâtre de Genève.
Recorded at Victoria Hall, Geneva, Switzerland, June 29, 1999 - July 2, 1999.

Лог создания рипаЛог создания рипа CD 1

Exact Audio Copy V1.0 beta 1 from 15. November 2010
EAC extraction logfile from 25. April 2011, 0:13
Giuseppe Verdi / Disc 15 - Alzira
Used drive : MATSHITADVD+-RW UJ-867S Adapter: 0 ID: 0
Read mode : Secure
Utilize accurate stream : Yes
Defeat audio cache : Yes
Make use of C2 pointers : No
Read offset correction : 102
Overread into Lead-In and Lead-Out : No
Fill up missing offset samples with silence : Yes
Delete leading and trailing silent blocks : No
Null samples used in CRC calculations : Yes
Used interface : Native Win32 interface for Win NT & 2000
Gap handling : Appended to previous track
Used output format : User Defined Encoder
Selected bitrate : 768 kBit/s
Quality : High
Add ID3 tag : No
Command line compressor : C:\Program Files\Exact Audio Copy\FLAC\FLAC.EXE
Additional command line options : -V -8 -T "artist=%a" -T "title=%t" -T "album=%g" -T "date=%y" -T "tracknumber=%n" -T "genre=%m" %s
TOC of the extracted CD
Track | Start | Length | Start sector | End sector
---------------------------------------------------------
1 | 0:00.00 | 6:16.50 | 0 | 28249
2 | 6:16.50 | 1:55.62 | 28250 | 36936
3 | 8:12.37 | 2:18.45 | 36937 | 47331
4 | 10:31.07 | 5:37.68 | 47332 | 72674
5 | 16:09.00 | 1:26.52 | 72675 | 79176
6 | 17:35.52 | 2:10.18 | 79177 | 88944
7 | 19:45.70 | 6:45.70 | 88945 | 119389
8 | 26:31.65 | 3:56.47 | 119390 | 137136
9 | 30:28.37 | 7:01.18 | 137137 | 168729
10 | 37:29.55 | 2:15.32 | 168730 | 178886
11 | 39:45.12 | 4:30.65 | 178887 | 199201
12 | 44:16.02 | 1:44.00 | 199202 | 207001
13 | 46:00.02 | 6:31.25 | 207002 | 236351
14 | 52:31.27 | 1:08.13 | 236352 | 241464
15 | 53:39.40 | 3:37.15 | 241465 | 257754
Track 1
Filename D:\music\Giuseppe Verdi - Complete Operas [FLAC]\Giuseppe Verdi - Disc 15 - Alzira (2001) - [FLAC]\01. Sinfonia.wav
Pre-gap length 0:00:02.00
Peak level 96.8 %
Extraction speed 1.3 X
Track quality 100.0 %
Test CRC 076529B8
Copy CRC 076529B8
Cannot be verified as accurate (confidence 4) [C867AF47], AccurateRip returned [B9131601]
Copy OK
Track 2
Filename D:\music\Giuseppe Verdi - Complete Operas [FLAC]\Giuseppe Verdi - Disc 15 - Alzira (2001) - [FLAC]\02. Prologo - Muoia, muoia, coverto d'insulti.wav
Pre-gap length 0:00:04.57
Peak level 97.5 %
Extraction speed 1.3 X
Track quality 100.0 %
Test CRC 3231BC15
Copy CRC 3231BC15
Cannot be verified as accurate (confidence 4) [FD4F19F1], AccurateRip returned [F160BC2D]
Copy OK
Track 3
Filename D:\music\Giuseppe Verdi - Complete Operas [FLAC]\Giuseppe Verdi - Disc 15 - Alzira (2001) - [FLAC]\03. A costoro quel nume perdoni.wav
Peak level 95.0 %
Extraction speed 1.4 X
Track quality 100.0 %
Test CRC 2C83EB98
Copy CRC 2C83EB98
Cannot be verified as accurate (confidence 4) [E33C0660], AccurateRip returned [875728DB]
Copy OK
Track 4
Filename D:\music\Giuseppe Verdi - Complete Operas [FLAC]\Giuseppe Verdi - Disc 15 - Alzira (2001) - [FLAC]\04. Un Inca... eccesso orribile!.wav
Peak level 97.2 %
Extraction speed 1.7 X
Track quality 100.0 %
Test CRC C0028AF7
Copy CRC C0028AF7
Cannot be verified as accurate (confidence 4) [BEB7DCE9], AccurateRip returned [65EF0EBD]
Copy OK
Track 5
Filename D:\music\Giuseppe Verdi - Complete Operas [FLAC]\Giuseppe Verdi - Disc 15 - Alzira (2001) - [FLAC]\05. Atto I - Giunse or or, da lido ispano.wav
Pre-gap length 0:00:04.37
Peak level 95.0 %
Extraction speed 1.3 X
Track quality 100.0 %
Test CRC 5386AB0C
Copy CRC 5386AB0C
Cannot be verified as accurate (confidence 4) [49BFA840], AccurateRip returned [FB255CB5]
Copy OK
Track 6
Filename D:\music\Giuseppe Verdi - Complete Operas [FLAC]\Giuseppe Verdi - Disc 15 - Alzira (2001) - [FLAC]\06. Alta cagion qui v'assembrava.wav
Peak level 97.2 %
Extraction speed 0.3 X
Track quality 100.0 %
Test CRC 1DC6B130
Copy CRC 1DC6B130
Cannot be verified as accurate (confidence 4) [90BC2316], AccurateRip returned [BA881073]
Copy OK
Track 7
Filename D:\music\Giuseppe Verdi - Complete Operas [FLAC]\Giuseppe Verdi - Disc 15 - Alzira (2001) - [FLAC]\07. Eterna la memoria.wav
Peak level 97.3 %
Extraction speed 1.9 X
Track quality 100.0 %
Test CRC 97A46CA6
Copy CRC 97A46CA6
Cannot be verified as accurate (confidence 4) [076C00F3], AccurateRip returned [43CB6A97]
Copy OK
Track 8
Filename D:\music\Giuseppe Verdi - Complete Operas [FLAC]\Giuseppe Verdi - Disc 15 - Alzira (2001) - [FLAC]\08. Riposa.wav
Pre-gap length 0:00:03.50
Peak level 55.3 %
Extraction speed 1.8 X
Track quality 100.0 %
Test CRC 834229BA
Copy CRC 834229BA
Cannot be verified as accurate (confidence 4) [700F3292], AccurateRip returned [A32BE024]
Copy OK
Track 9
Filename D:\music\Giuseppe Verdi - Complete Operas [FLAC]\Giuseppe Verdi - Disc 15 - Alzira (2001) - [FLAC]\09. Da Gusman, su fragil barca.wav
Peak level 97.2 %
Extraction speed 2.0 X
Track quality 100.0 %
Test CRC AE80BA0A
Copy CRC AE80BA0A
Cannot be verified as accurate (confidence 4) [79B44C2D], AccurateRip returned [2A59A0A8]
Copy OK
Track 10
Filename D:\music\Giuseppe Verdi - Complete Operas [FLAC]\Giuseppe Verdi - Disc 15 - Alzira (2001) - [FLAC]\10. Figlia!... Padre!.wav
Peak level 75.2 %
Extraction speed 1.7 X
Track quality 100.0 %
Test CRC B7C9D104
Copy CRC B7C9D104
Cannot be verified as accurate (confidence 4) [E6A1562F], AccurateRip returned [A28C8643]
Copy OK
Track 11
Filename D:\music\Giuseppe Verdi - Complete Operas [FLAC]\Giuseppe Verdi - Disc 15 - Alzira (2001) - [FLAC]\11. Chi fia¿.wav
Peak level 97.0 %
Extraction speed 0.6 X
Track quality 100.0 %
Test CRC 33680044
Copy CRC 33680044
Cannot be verified as accurate (confidence 4) [2DDEBF75], AccurateRip returned [1138C494]
Copy OK
Track 12
Filename D:\music\Giuseppe Verdi - Complete Operas [FLAC]\Giuseppe Verdi - Disc 15 - Alzira (2001) - [FLAC]\12. Qual ardimento!.wav
Peak level 96.9 %
Extraction speed 1.7 X
Track quality 100.0 %
Test CRC 7010C03B
Copy CRC 7010C03B
Cannot be verified as accurate (confidence 4) [05B91A36], AccurateRip returned [BCED9224]
Copy OK
Track 13
Filename D:\music\Giuseppe Verdi - Complete Operas [FLAC]\Giuseppe Verdi - Disc 15 - Alzira (2001) - [FLAC]\13. Teco sperai combattere.wav
Peak level 97.6 %
Extraction speed 2.1 X
Track quality 100.0 %
Test CRC A3F0A512
Copy CRC A3F0A512
Cannot be verified as accurate (confidence 4) [CBFE54DD], AccurateRip returned [B8EA05DB]
Copy OK
Track 14
Filename D:\music\Giuseppe Verdi - Complete Operas [FLAC]\Giuseppe Verdi - Disc 15 - Alzira (2001) - [FLAC]\14. Oual suon¿.wav
Peak level 96.8 %
Extraction speed 1.5 X
Track quality 100.0 %
Test CRC 14414734
Copy CRC 14414734
Cannot be verified as accurate (confidence 4) [52BBF6A1], AccurateRip returned [421B3D3E]
Copy OK
Track 15
Filename D:\music\Giuseppe Verdi - Complete Operas [FLAC]\Giuseppe Verdi - Disc 15 - Alzira (2001) - [FLAC]\15. Trema, trema.wav
Peak level 97.3 %
Extraction speed 2.0 X
Track quality 100.0 %
Test CRC 4AC7FF91
Copy CRC 4AC7FF91
Cannot be verified as accurate (confidence 4) [893526F3], AccurateRip returned [B14B129B]
Copy OK
No tracks could be verified as accurate
You may have a different pressing from the one(s) in the database
No errors occurred
End of status report
==== Log checksum F1E1E8C4BAFDCFF879DC2A9450B7B59117EA3D8449FD3312482816E580D4DEC9 ====

Лог создания рипа CD 2

Exact Audio Copy V1.0 beta 1 from 15. November 2010
EAC extraction logfile from 25. April 2011, 16:27
Giuseppe Verdi / Disc 16 - Alzira
Used drive : MATSHITADVD+-RW UJ-867S Adapter: 0 ID: 0
Read mode : Secure
Utilize accurate stream : Yes
Defeat audio cache : Yes
Make use of C2 pointers : No
Read offset correction : 102
Overread into Lead-In and Lead-Out : No
Fill up missing offset samples with silence : Yes
Delete leading and trailing silent blocks : No
Null samples used in CRC calculations : Yes
Used interface : Native Win32 interface for Win NT & 2000
Gap handling : Appended to previous track
Used output format : User Defined Encoder
Selected bitrate : 768 kBit/s
Quality : High
Add ID3 tag : No
Command line compressor : C:\Program Files\Exact Audio Copy\FLAC\FLAC.EXE
Additional command line options : -V -8 -T "artist=%a" -T "title=%t" -T "album=%g" -T "date=%y" -T "tracknumber=%n" -T "genre=%m" %s
TOC of the extracted CD
Track | Start | Length | Start sector | End sector
---------------------------------------------------------
1 | 0:00.00 | 2:03.15 | 0 | 9239
2 | 2:03.15 | 2:07.35 | 9240 | 18799
3 | 4:10.50 | 3:52.67 | 18800 | 36266
4 | 8:03.42 | 0:58.28 | 36267 | 40644
5 | 9:01.70 | 2:17.70 | 40645 | 50989
6 | 11:19.65 | 4:30.57 | 50990 | 71296
7 | 15:50.47 | 6:45.38 | 71297 | 101709
8 | 22:36.10 | 2:14.62 | 101710 | 111821
9 | 24:50.72 | 0:56.55 | 111822 | 116076
10 | 25:47.52 | 2:37.65 | 116077 | 127916
11 | 28:25.42 | 5:52.63 | 127917 | 154379
Track 1
Filename D:\music\Giuseppe Verdi - Complete Operas [FLAC]\Giuseppe Verdi - Disc 16 - Alzira (2001) - [FLAC]\01. Atto II - Mesci, mesci!.wav
Pre-gap length 0:00:02.00
Peak level 96.8 %
Extraction speed 0.9 X
Track quality 99.9 %
Test CRC 79F7D182
Copy CRC 79F7D182
Cannot be verified as accurate (confidence 4) [543B320E], AccurateRip returned [A356F0D2]
Copy OK
Track 2
Filename D:\music\Giuseppe Verdi - Complete Operas [FLAC]\Giuseppe Verdi - Disc 16 - Alzira (2001) - [FLAC]\02. Guerrieri, al nuovo dì.wav
Peak level 97.3 %
Extraction speed 1.2 X
Track quality 100.0 %
Test CRC D7C7D6ED
Copy CRC D7C7D6ED
Cannot be verified as accurate (confidence 4) [519B5D53], AccurateRip returned [F18EA9D4]
Copy OK
Track 3
Filename D:\music\Giuseppe Verdi - Complete Operas [FLAC]\Giuseppe Verdi - Disc 16 - Alzira (2001) - [FLAC]\03. Il pianto... l'angoscia....wav
Peak level 90.2 %
Extraction speed 1.4 X
Track quality 100.0 %
Test CRC 850E8A57
Copy CRC 850E8A57
Cannot be verified as accurate (confidence 4) [A5522B1B], AccurateRip returned [23FCFF29]
Copy OK
Track 4
Filename D:\music\Giuseppe Verdi - Complete Operas [FLAC]\Giuseppe Verdi - Disc 16 - Alzira (2001) - [FLAC]\04. Ei mora!.wav
Peak level 84.6 %
Extraction speed 1.1 X
Track quality 100.0 %
Test CRC 1D705310
Copy CRC 1D705310
Cannot be verified as accurate (confidence 4) [8704B670], AccurateRip returned [CE6C1FC5]
Copy OK
Track 5
Filename D:\music\Giuseppe Verdi - Complete Operas [FLAC]\Giuseppe Verdi - Disc 16 - Alzira (2001) - [FLAC]\05. Colma di gioia ho l'anima!.wav
Peak level 97.1 %
Extraction speed 1.4 X
Track quality 100.0 %
Test CRC AA64492A
Copy CRC AA64492A
Cannot be verified as accurate (confidence 4) [CFD3F0DE], AccurateRip returned [A42CE14E]
Copy OK
Track 6
Filename D:\music\Giuseppe Verdi - Complete Operas [FLAC]\Giuseppe Verdi - Disc 16 - Alzira (2001) - [FLAC]\06. Amici!... Ebben¿.wav
Pre-gap length 0:00:02.53
Peak level 96.9 %
Extraction speed 1.7 X
Track quality 100.0 %
Test CRC F85E8C78
Copy CRC F85E8C78
Cannot be verified as accurate (confidence 4) [955B8990], AccurateRip returned [BCAEA41D]
Copy OK
Track 7
Filename D:\music\Giuseppe Verdi - Complete Operas [FLAC]\Giuseppe Verdi - Disc 16 - Alzira (2001) - [FLAC]\07. Irne lungi ancor.wav
Peak level 97.3 %
Extraction speed 1.8 X
Track quality 100.0 %
Test CRC 94C97BC1
Copy CRC 94C97BC1
Cannot be verified as accurate (confidence 4) [FE2AC1A9], AccurateRip returned [77DC8B21]
Copy OK
Track 8
Filename D:\music\Giuseppe Verdi - Complete Operas [FLAC]\Giuseppe Verdi - Disc 16 - Alzira (2001) - [FLAC]\08. Tergi del pianto America.wav
Pre-gap length 0:00:03.77
Peak level 96.9 %
Extraction speed 1.3 X
Track quality 99.9 %
Test CRC 21F0F5A3
Copy CRC 21F0F5A3
Cannot be verified as accurate (confidence 4) [EEEE3C74], AccurateRip returned [03B563B8]
Copy OK
Track 9
Filename D:\music\Giuseppe Verdi - Complete Operas [FLAC]\Giuseppe Verdi - Disc 16 - Alzira (2001) - [FLAC]\09. Prodi figli d'lberia.wav
Peak level 29.9 %
Extraction speed 1.2 X
Track quality 100.0 %
Test CRC E6ABBA86
Copy CRC E6ABBA86
Cannot be verified as accurate (confidence 4) [465F4CD4], AccurateRip returned [D1D78DCC]
Copy OK
Track 10
Filename D:\music\Giuseppe Verdi - Complete Operas [FLAC]\Giuseppe Verdi - Disc 16 - Alzira (2001) - [FLAC]\10. E' dolce la tromba.wav
Peak level 96.9 %
Extraction speed 1.7 X
Track quality 100.0 %
Test CRC C2C384B8
Copy CRC C2C384B8
Cannot be verified as accurate (confidence 4) [5DA7B45D], AccurateRip returned [AD46FB28]
Copy OK
Track 11
Filename D:\music\Giuseppe Verdi - Complete Operas [FLAC]\Giuseppe Verdi - Disc 16 - Alzira (2001) - [FLAC]\11. Altre virtudi, insano.wav
Peak level 97.6 %
Extraction speed 1.9 X
Track quality 100.0 %
Test CRC 68EB1409
Copy CRC 68EB1409
Cannot be verified as accurate (confidence 4) [AAF1CF11], AccurateRip returned [1679BAFC]
Copy OK
No tracks could be verified as accurate
You may have a different pressing from the one(s) in the database
No errors occurred
End of status report
==== Log checksum 988731FC1B8908279716A0042D7B2B38B617C4DAC3360AE4F2E77EB84E2BF50F ====

Содержание индексной карты (.CUE)Содержание индексной карты (.CUE) CD 1

REM GENRE Opera
REM DATE 2001
REM DISCID D60D6C0F
REM COMMENT "ExactAudioCopy v1.0b1"
FILE "Giuseppe Verdi - Disc 15 - Alzira (2001) - [FLAC]\01. Sinfonia.wav" WAVE
TRACK 01 AUDIO
INDEX 01 00:00:00
TRACK 02 AUDIO
INDEX 00 06:12:07
FILE "Giuseppe Verdi - Disc 15 - Alzira (2001) - [FLAC]\02. Prologo - Muoia, muoia, coverto d'insulti.wav" WAVE
INDEX 01 00:00:00
FILE "Giuseppe Verdi - Disc 15 - Alzira (2001) - [FLAC]\03. A costoro quel nume perdoni.wav" WAVE
TRACK 03 AUDIO
INDEX 01 00:00:00
FILE "Giuseppe Verdi - Disc 15 - Alzira (2001) - [FLAC]\04. Un Inca... eccesso orribile!.wav" WAVE
TRACK 04 AUDIO
INDEX 01 00:00:00
TRACK 05 AUDIO
INDEX 00 05:33:40
FILE "Giuseppe Verdi - Disc 15 - Alzira (2001) - [FLAC]\05. Atto I - Giunse or or, da lido ispano.wav" WAVE
INDEX 01 00:00:00
FILE "Giuseppe Verdi - Disc 15 - Alzira (2001) - [FLAC]\06. Alta cagion qui v'assembrava.wav" WAVE
TRACK 06 AUDIO
INDEX 01 00:00:00
FILE "Giuseppe Verdi - Disc 15 - Alzira (2001) - [FLAC]\07. Eterna la memoria.wav" WAVE
TRACK 07 AUDIO
INDEX 01 00:00:00
TRACK 08 AUDIO
INDEX 00 06:42:32
FILE "Giuseppe Verdi - Disc 15 - Alzira (2001) - [FLAC]\08. Riposa.wav" WAVE
INDEX 01 00:00:00
FILE "Giuseppe Verdi - Disc 15 - Alzira (2001) - [FLAC]\09. Da Gusman, su fragil barca.wav" WAVE
TRACK 09 AUDIO
INDEX 01 00:00:00
FILE "Giuseppe Verdi - Disc 15 - Alzira (2001) - [FLAC]\10. Figlia!... Padre!.wav" WAVE
TRACK 10 AUDIO
INDEX 01 00:00:00
FILE "Giuseppe Verdi - Disc 15 - Alzira (2001) - [FLAC]\11. Chi fiaї.wav" WAVE
TRACK 11 AUDIO
INDEX 01 00:00:00
FILE "Giuseppe Verdi - Disc 15 - Alzira (2001) - [FLAC]\12. Qual ardimento!.wav" WAVE
TRACK 12 AUDIO
INDEX 01 00:00:00
FILE "Giuseppe Verdi - Disc 15 - Alzira (2001) - [FLAC]\13. Teco sperai combattere.wav" WAVE
TRACK 13 AUDIO
INDEX 01 00:00:00
FILE "Giuseppe Verdi - Disc 15 - Alzira (2001) - [FLAC]\14. Oual suonї.wav" WAVE
TRACK 14 AUDIO
INDEX 01 00:00:00
FILE "Giuseppe Verdi - Disc 15 - Alzira (2001) - [FLAC]\15. Trema, trema.wav" WAVE
TRACK 15 AUDIO
INDEX 01 00:00:00

Содержание индексной карты (.CUE) CD 2

REM GENRE Opera
REM DATE 2001
REM DISCID 92080A0B
REM COMMENT "ExactAudioCopy v1.0b1"
FILE "Giuseppe Verdi - Disc 16 - Alzira (2001) - [FLAC]\01. Atto II - Mesci, mesci!.wav" WAVE
TRACK 01 AUDIO
INDEX 01 00:00:00
FILE "Giuseppe Verdi - Disc 16 - Alzira (2001) - [FLAC]\02. Guerrieri, al nuovo dм.wav" WAVE
TRACK 02 AUDIO
INDEX 01 00:00:00
FILE "Giuseppe Verdi - Disc 16 - Alzira (2001) - [FLAC]\03. Il pianto... l'angoscia....wav" WAVE
TRACK 03 AUDIO
INDEX 01 00:00:00
FILE "Giuseppe Verdi - Disc 16 - Alzira (2001) - [FLAC]\04. Ei mora!.wav" WAVE
TRACK 04 AUDIO
INDEX 01 00:00:00
FILE "Giuseppe Verdi - Disc 16 - Alzira (2001) - [FLAC]\05. Colma di gioia ho l'anima!.wav" WAVE
TRACK 05 AUDIO
INDEX 01 00:00:00
TRACK 06 AUDIO
INDEX 00 02:15:30
FILE "Giuseppe Verdi - Disc 16 - Alzira (2001) - [FLAC]\06. Amici!... Ebbenї.wav" WAVE
INDEX 01 00:00:00
FILE "Giuseppe Verdi - Disc 16 - Alzira (2001) - [FLAC]\07. Irne lungi ancor.wav" WAVE
TRACK 07 AUDIO
INDEX 01 00:00:00
TRACK 08 AUDIO
INDEX 00 06:41:55
FILE "Giuseppe Verdi - Disc 16 - Alzira (2001) - [FLAC]\08. Tergi del pianto America.wav" WAVE
INDEX 01 00:00:00
FILE "Giuseppe Verdi - Disc 16 - Alzira (2001) - [FLAC]\09. Prodi figli d'lberia.wav" WAVE
TRACK 09 AUDIO
INDEX 01 00:00:00
FILE "Giuseppe Verdi - Disc 16 - Alzira (2001) - [FLAC]\10. E' dolce la tromba.wav" WAVE
TRACK 10 AUDIO
INDEX 01 00:00:00
FILE "Giuseppe Verdi - Disc 16 - Alzira (2001) - [FLAC]\11. Altre virtudi, insano.wav" WAVE
TRACK 11 AUDIO
INDEX 01 00:00:00

Треклист

Disc 1:
1. Sinfonia
2. Muoia, muoia, coverto d'insulti
3. A costoro quel nume perdoni
4. Un Inca... eccesso orribile!
5. Giunse or or, da lido ispano
6. Alta cagion qui v'assembrava
7. Eterna la memoria
8. Riposa
9. Da Gusman, su fragil barca
10. Figlia!... Padre!
11. Chi fia?
12. Qual ardimento!
13. Teco sperai combattere
14. Qual suon?
15. Trema, trema
Disc 2:
1. Mesci, mesci!
2. Guerrieri, al nuovo dì
3. Il pianto... l'angoscia...
4. Ei mora!
5. Colma di gioia ho l'anima
6. Amici!... Ebben?
7. Irne lungi ancor
8. Tergi del pianto America
9. Prodi figli d'lberia
10. E' dolce la tromba
11. Altre virtudi, insano



Показать сообщения:    

Текущее время: 11-Дек 01:22

Часовой пояс: UTC + 3


Вы не можете начинать темы
Вы не можете отвечать на сообщения
Вы не можете редактировать свои сообщения
Вы не можете удалять свои сообщения
Вы не можете голосовать в опросах
Вы не можете прикреплять файлы к сообщениям
Вы не можете скачивать файлы