Тайна скрипичной души (Андрей Торстенсен) [2003, Документальный, Музыка, SATRip-AVC]


Статистика раздачи [Обновить пиров]
Размер:  1.03 GB   |    Зарегистрирован:  10 месяцев 3 дня   |    Скачан:  0 раз

Полного источника не было: Никогда

 
   
 
 
 

[Цитировать]

Тайна скрипичной души
Дата/Год выпуска: 2003
Страна: Россия
Жанр: Документальный, Музыка
Продолжительность: 3 x 00:26:00
Перевод: Не требуется
Режиссер: Андрей Торстенсен
Телеканал: Культура
Описание: Съемки этого цикла проходили в Генуе, Одессе, Санкт-Петербурге, Москве.
Рассказ о скрипичных школах Никколо Паганини, Леопольда Ауэра, Петра Столярского.
Звучит музыка в исполнении выдающихся артистов - Яши Хейфеца, Стефана Грапелли, Исаака Стерна, Давида Ойстраха, Леонида Когана, Владимира Спивакова.
Ведущий: Владимир Спиваков.
Режиссер: Андрей Торстенсен.
Автор: Валентин Тернявский.
Оператор-постановщик: Юрий Назаров.
Звукорежиссер: Светлана Дегтева.
Программа, созданная при финансовой поддержке МПТР, была выдвинута на конкурс ТЭФИ-2004 в номинации "Музыкальная программа".
Андрей Торстенсен удостоен премии ТЭФИ-2004 как режиссер телепрограммы "Тайна скрипичной души".
Сэмпл: http://sendfile.su/1165214
качество: SATRip-AVC
формат: MKV
Видео: 704x360 (32:15) 25fps
Аудио: MPEG Audio 48000Hz 2ch mono

Список выпусков/серий

1. В первой части речь пойдет о Консерватории имени Н. Паганини в Генуе и Консерватории в Петербурге.
Включены архивные съемки с участием Иегуди Менухина.
2. Скрипка в творчестве художника Марка Шагала; школа-десятилетка имени П. Столярского в Одессе; личный архив Никколо Паганини; скрипки из Государственной коллекции уникальных инструментов.
3. Новелла и песня Александра Вертинского "Концерт Сарасате"; Центральная музыкальная школа и класс профессора А.И. Ямпольского;
путь Давида Ойстраха; Леонид Коган и стихи Владимира Маяковского "Скрипка и немножко нервно".
В программе принимает участие профессор Эдуард Грач.

MediaInfo

Format                         : Matroska
Format version : Version 2
File size : 347 MiB
Duration : 25mn 57s
Overall bit rate : 1 869 Kbps
Encoded date : UTC 2015-10-15 20:03:10
Writing application : mkvmerge v5.8.0 ('No Sleep / Pillow') built on Sep 2 2012 15:37:04
Writing library : libebml v1.2.3 + libmatroska v1.3.0
Video
ID : 1
Format : AVC
Format/Info : Advanced Video Codec
Format profile : High@L4.1
Format settings, CABAC : Yes
Format settings, ReFrames : 8 frames
Codec ID : V_MPEG4/ISO/AVC
Duration : 25mn 57s
Bit rate : 1 640 Kbps
Width : 704 pixels
Height : 360 pixels
Display aspect ratio : 2.133
Frame rate mode : Constant
Frame rate : 25.000 fps
Color space : YUV
Chroma subsampling : 4:2:0
Bit depth : 8 bits
Scan type : Progressive
Bits/(Pixel*Frame) : 0.259
Stream size : 305 MiB (88%)
Writing library : x264 core 125 r2208 d9d2288
Encoding settings : cabac=1 / ref=8 / deblock=1:-1:-1 / analyse=0x3:0x133 / me=umh / subme=9 / psy=1 / psy_rd=1.00:0.10 / mixed_ref=1 / me_range=24 / chroma_me=1 / trellis=2 / 8x8dct=1 / cqm=0 / deadzone=21,11 / fast_pskip=1 / chroma_qp_offset=-3 / threads=6 / lookahead_threads=1 / sliced_threads=0 / nr=0 / decimate=1 / interlaced=0 / bluray_compat=0 / constrained_intra=0 / bframes=3 / b_pyramid=2 / b_adapt=2 / b_bias=0 / direct=1 / weightb=1 / open_gop=0 / weightp=2 / keyint=250 / keyint_min=25 / scenecut=40 / intra_refresh=0 / rc_lookahead=60 / rc=crf / mbtree=1 / crf=19.0 / qcomp=0.60 / qpmin=0 / qpmax=69 / qpstep=4 / ip_ratio=1.40 / aq=1:1.00
Default : Yes
Forced : No
Audio
ID : 2
Format : MPEG Audio
Format version : Version 1
Format profile : Layer 2
Codec ID : A_MPEG/L2
Codec ID/Hint : MP2
Duration : 25mn 57s
Bit rate mode : Constant
Bit rate : 192 Kbps
Channel(s) : 2 channels
Sampling rate : 48.0 KHz
Compression mode : Lossy
Stream size : 35.7 MiB (10%)
Default : Yes
Forced : No

Скриншоты

[teatrix.ru].t22461.torrent 
Торрент: Зарегистрирован [ 2016-03-20 12:33 ] · E8E8E56E86FAB90CA79B45FA53DE91C01BD63BCF

Скачать .torrent

Скачать

11 KB

Статус: проверено
Скачан: 0 раз
Размер: 1.03 GB
terms.php



Быстрый ответ

Имя:

      
Для отправки сообщений необходимо включить JavaScript
Показать сообщения:    

Текущее время: 24-Янв 12:13

Часовой пояс: UTC + 3


Вы можете начинать темы
Вы можете отвечать на сообщения
Вы не можете редактировать свои сообщения
Вы не можете удалять свои сообщения
Вы не можете голосовать в опросах
Вы не можете прикреплять файлы к сообщениям
Вы можете скачивать файлы