(Opera) Giuseppe Verdi - Oberto, Conte di San Bonifacio / Джузеппе Верди - Оберто, граф ди Сан Бонифачо (Neville Marriner; Samuel Ramey, Violeta Urmana, Maria Guleghina, Stuart Neill), 1996 - Studio recording / 1997, FLAC (tracks+.cue), lossless


 

[Цитировать]

Giuseppe Verdi - Oberto, Conte di San Bonifacio / Джузеппе Верди - Оберто, граф ди Сан Бонифачо (Neville Marriner; Samuel Ramey, Violeta Urmana, Maria Guleghina, Stuart Neill)
Жанр: Opera
Страна-производитель диска: CША
Год издания диска: 1997
Издатель (лейбл): DECCA
Дата записи: 1996
Аудиокодек: FLAC
Тип рипа: tracks+.cue
Битрейт аудио: lossless
Продолжительность: 147:48
Источник: релизер (kat)
Исполнители:
Oberto - Samuel Ramey,
Cuniza - Violeta Urmana,
Leonora - Maria Guleghina,
Riccardo - Stuart Neill,
Imelda - Imelda Fulgoni.
Conductor - Neville Marriner,
Orchestra of Academy of St-Martin-in-the-Fields,
London Voices.
Recorded at St. John's Smith Square, London, United Kingdom, August 1996.

Лог создания рипаЛог создания рипа CD 1

Exact Audio Copy V1.0 beta 1 from 15. November 2010
EAC extraction logfile from 18. April 2011, 23:53
Giuseppe Verdi / Disc 01 - Oberto
Used drive : MATSHITADVD+-RW UJ-867S Adapter: 0 ID: 0
Read mode : Secure
Utilize accurate stream : Yes
Defeat audio cache : Yes
Make use of C2 pointers : No
Read offset correction : 102
Overread into Lead-In and Lead-Out : No
Fill up missing offset samples with silence : Yes
Delete leading and trailing silent blocks : No
Null samples used in CRC calculations : Yes
Used interface : Native Win32 interface for Win NT & 2000
Gap handling : Appended to previous track
Used output format : User Defined Encoder
Selected bitrate : 768 kBit/s
Quality : High
Add ID3 tag : No
Command line compressor : C:\Program Files\Exact Audio Copy\FLAC\FLAC.EXE
Additional command line options : -V -8 -T "artist=%a" -T "title=%t" -T "album=%g" -T "date=%y" -T "tracknumber=%n" -T "genre=%m" %s
TOC of the extracted CD
Track | Start | Length | Start sector | End sector
---------------------------------------------------------
1 | 0:00.33 | 5:44.00 | 33 | 25832
2 | 5:44.33 | 3:26.00 | 25833 | 41282
3 | 9:10.33 | 5:22.00 | 41283 | 65432
4 | 14:32.33 | 8:36.00 | 65433 | 104132
5 | 23:08.33 | 14:04.00 | 104133 | 167432
6 | 37:12.33 | 2:45.00 | 167433 | 179807
7 | 39:57.33 | 8:25.00 | 179808 | 217682
8 | 48:22.33 | 13:17.00 | 217683 | 277457
9 | 61:39.33 | 8:13.00 | 277458 | 314432
Track 1
Filename D:\music\Giuseppe Verdi - Complete Operas [FLAC]\Giuseppe Verdi - Disc 01 - Oberto (1997) - [FLAC]\01. Sinfonia.wav
Pre-gap length 0:00:02.44
Peak level 100.0 %
Extraction speed 1.4 X
Track quality 99.9 %
Test CRC A40A86F5
Copy CRC A40A86F5
Track not present in AccurateRip database
Copy OK
Track 2
Filename D:\music\Giuseppe Verdi - Complete Operas [FLAC]\Giuseppe Verdi - Disc 01 - Oberto (1997) - [FLAC]\02. (Atto primo) - Di Vermiglia, amabil luce (Coro).wav
Pre-gap length 0:00:02.00
Peak level 100.0 %
Extraction speed 1.5 X
Track quality 100.0 %
Test CRC D33742F6
Copy CRC D33742F6
Track not present in AccurateRip database
Copy OK
Track 3
Filename D:\music\Giuseppe Verdi - Complete Operas [FLAC]\Giuseppe Verdi - Disc 01 - Oberto (1997) - [FLAC]\03. Son fra voi! (Riccardo).wav
Peak level 100.0 %
Extraction speed 1.6 X
Track quality 100.0 %
Test CRC 2F82AB6F
Copy CRC 2F82AB6F
Track not present in AccurateRip database
Copy OK
Track 4
Filename D:\music\Giuseppe Verdi - Complete Operas [FLAC]\Giuseppe Verdi - Disc 01 - Oberto (1997) - [FLAC]\04. Ah, sgombro è il loco alfin! (Leonora).wav
Pre-gap length 0:00:03.00
Peak level 93.6 %
Extraction speed 1.8 X
Track quality 100.0 %
Test CRC A1302BC6
Copy CRC A1302BC6
Track not present in AccurateRip database
Copy OK
Track 5
Filename D:\music\Giuseppe Verdi - Complete Operas [FLAC]\Giuseppe Verdi - Disc 01 - Oberto (1997) - [FLAC]\05. Oh patria terra (Oberto).wav
Pre-gap length 0:00:02.00
Peak level 100.0 %
Extraction speed 1.9 X
Track quality 100.0 %
Test CRC BD078494
Copy CRC BD078494
Track not present in AccurateRip database
Copy OK
Track 6
Filename D:\music\Giuseppe Verdi - Complete Operas [FLAC]\Giuseppe Verdi - Disc 01 - Oberto (1997) - [FLAC]\06. Fidanzata avventurosa (Coro).wav
Pre-gap length 0:00:02.00
Peak level 99.4 %
Extraction speed 0.4 X
Track quality 100.0 %
Test CRC C7E4B4FA
Copy CRC C7E4B4FA
Track not present in AccurateRip database
Copy OK
Track 7
Filename D:\music\Giuseppe Verdi - Complete Operas [FLAC]\Giuseppe Verdi - Disc 01 - Oberto (1997) - [FLAC]\07. Basta, basta oh fedeli! (Cuniza).wav
Peak level 90.7 %
Extraction speed 2.0 X
Track quality 100.0 %
Test CRC 2A19B319
Copy CRC 2A19B319
Track not present in AccurateRip database
Copy OK
Track 8
Filename D:\music\Giuseppe Verdi - Complete Operas [FLAC]\Giuseppe Verdi - Disc 01 - Oberto (1997) - [FLAC]\08. Alta cagione adunque (Imelda).wav
Pre-gap length 0:00:01.00
Peak level 100.0 %
Extraction speed 1.1 X
Track quality 100.0 %
Test CRC 80219995
Copy CRC 80219995
Track not present in AccurateRip database
Copy OK
Track 9
Filename D:\music\Giuseppe Verdi - Complete Operas [FLAC]\Giuseppe Verdi - Disc 01 - Oberto (1997) - [FLAC]\09. A me gli amici! (Cuniza).wav
Pre-gap length 0:00:01.00
Peak level 100.0 %
Extraction speed 2.1 X
Track quality 100.0 %
Test CRC 90805B9F
Copy CRC 90805B9F
Track not present in AccurateRip database
Copy OK
None of the tracks are present in the AccurateRip database
No errors occurred
End of status report
==== Log checksum 508739E701F138DD4AA42F1BEDC24599B9E64885D13931788145D85CC0A6A0B6 ====

Лог создания рипа CD 2

Exact Audio Copy V1.0 beta 1 from 15. November 2010
EAC extraction logfile from 19. April 2011, 9:24
Giuseppe Verdi / Disc 02 - Oberto
Used drive : MATSHITADVD+-RW UJ-867S Adapter: 0 ID: 0
Read mode : Secure
Utilize accurate stream : Yes
Defeat audio cache : Yes
Make use of C2 pointers : No
Read offset correction : 102
Overread into Lead-In and Lead-Out : No
Fill up missing offset samples with silence : Yes
Delete leading and trailing silent blocks : No
Null samples used in CRC calculations : Yes
Used interface : Native Win32 interface for Win NT & 2000
Gap handling : Appended to previous track
Used output format : User Defined Encoder
Selected bitrate : 768 kBit/s
Quality : High
Add ID3 tag : No
Command line compressor : C:\Program Files\Exact Audio Copy\FLAC\FLAC.EXE
Additional command line options : -V -8 -T "artist=%a" -T "title=%t" -T "album=%g" -T "date=%y" -T "tracknumber=%n" -T "genre=%m" %s
TOC of the extracted CD
Track | Start | Length | Start sector | End sector
---------------------------------------------------------
1 | 0:00.33 | 10:04.00 | 33 | 45332
2 | 10:04.33 | 3:52.00 | 45333 | 62732
3 | 13:56.33 | 6:36.32 | 62733 | 92464
4 | 20:32.65 | 12:15.43 | 92465 | 147632
5 | 32:48.33 | 2:51.30 | 147633 | 160487
6 | 35:39.63 | 4:02.45 | 160488 | 178682
7 | 39:42.33 | 14:43.00 | 178683 | 244907
8 | 54:25.33 | 9:28.00 | 244908 | 287507
9 | 63:53.33 | 6:04.00 | 287508 | 314807
10 | 69:57.33 | 8:57.00 | 314808 | 355082
Track 1
Filename D:\music\Giuseppe Verdi - Complete Operas [FLAC]\Giuseppe Verdi - Disc 02 - Oberto (1997) - [FLAC]\01. ATTO II.- Infelice! nel core tradito (Coro).wav
Pre-gap length 0:00:02.44
Peak level 100.0 %
Extraction speed 0.6 X
Track quality 99.9 %
Test CRC 70165168
Copy CRC 70165168
Track not present in AccurateRip database
Copy OK
Track 2
Filename D:\music\Giuseppe Verdi - Complete Operas [FLAC]\Giuseppe Verdi - Disc 02 - Oberto (1997) - [FLAC]\02. II.- Dov'è l'astro che nel cielo (Coro).wav
Peak level 99.8 %
Extraction speed 0.9 X
Track quality 100.0 %
Test CRC 7901C8FA
Copy CRC 7901C8FA
Track not present in AccurateRip database
Copy OK
Track 3
Filename D:\music\Giuseppe Verdi - Complete Operas [FLAC]\Giuseppe Verdi - Disc 02 - Oberto (1997) - [FLAC]\03. II.- Ei tarda ancor!... (Oberto).wav
Peak level 97.0 %
Extraction speed 1.0 X
Track quality 100.0 %
Test CRC 39B825C9
Copy CRC 39B825C9
Track not present in AccurateRip database
Copy OK
Track 4
Filename D:\music\Giuseppe Verdi - Complete Operas [FLAC]\Giuseppe Verdi - Disc 02 - Oberto (1997) - [FLAC]\04. II.- Eccolo! (Oberto).wav
Peak level 100.0 %
Extraction speed 0.7 X
Track quality 100.0 %
Test CRC B8CCCE39
Copy CRC B8CCCE39
Track not present in AccurateRip database
Copy OK
Track 5
Filename D:\music\Giuseppe Verdi - Complete Operas [FLAC]\Giuseppe Verdi - Disc 02 - Oberto (1997) - [FLAC]\05. II.- Li vedeste (Coro).wav
Peak level 100.0 %
Extraction speed 1.0 X
Track quality 100.0 %
Test CRC AEABA38E
Copy CRC AEABA38E
Track not present in AccurateRip database
Copy OK
Track 6
Filename D:\music\Giuseppe Verdi - Complete Operas [FLAC]\Giuseppe Verdi - Disc 02 - Oberto (1997) - [FLAC]\06. II.- Ciel, che feci!... (Riccardo).wav
Peak level 85.0 %
Extraction speed 1.1 X
Track quality 100.0 %
Test CRC BF25CFBC
Copy CRC BF25CFBC
Track not present in AccurateRip database
Copy OK
Track 7
Filename D:\music\Giuseppe Verdi - Complete Operas [FLAC]\Giuseppe Verdi - Disc 02 - Oberto (1997) - [FLAC]\07. II.- Dove son... li cerco invano! (Cuniza).wav
Pre-gap length 0:00:01.00
Peak level 100.0 %
Extraction speed 0.9 X
Track quality 100.0 %
Test CRC 6BD98F8A
Copy CRC 6BD98F8A
Track not present in AccurateRip database
Copy OK
Track 8
Filename D:\music\Giuseppe Verdi - Complete Operas [FLAC]\Giuseppe Verdi - Disc 02 - Oberto (1997) - [FLAC]\08. APÉNDICES.- Al padre io corro (Leonora).wav
Pre-gap length 0:00:07.00
Peak level 100.0 %
Extraction speed 0.8 X
Track quality 100.0 %
Test CRC D2379840
Copy CRC D2379840
Track not present in AccurateRip database
Copy OK
Track 9
Filename D:\music\Giuseppe Verdi - Complete Operas [FLAC]\Giuseppe Verdi - Disc 02 - Oberto (1997) - [FLAC]\09. AP.- Oh fedeli! a me diletto (Cuniza).wav
Pre-gap length 0:00:06.00
Peak level 100.0 %
Extraction speed 1.3 X
Track quality 100.0 %
Test CRC 958C78BB
Copy CRC 958C78BB
Track not present in AccurateRip database
Copy OK
Track 10
Filename D:\music\Giuseppe Verdi - Complete Operas [FLAC]\Giuseppe Verdi - Disc 02 - Oberto (1997) - [FLAC]\10. AP.- Basta, basta oh fedeli! (Cuniza).wav
Pre-gap length 0:00:06.00
Peak level 98.4 %
Extraction speed 1.8 X
Track quality 100.0 %
Test CRC 606749F9
Copy CRC 606749F9
Track not present in AccurateRip database
Copy OK
None of the tracks are present in the AccurateRip database
No errors occurred
End of status report
==== Log checksum 6A67EA9DC31DE77047170327BB5F526676FBE0AA0E24C89A9C701DC9A19DC2F1 ====

Содержание индексной карты (.CUE)Содержание индексной карты (.CUE) CD 1

REM GENRE Opera
REM DATE 1997
REM DISCID 77106009
REM COMMENT "ExactAudioCopy v1.0b1"
FILE "Giuseppe Verdi - Disc 01 - Oberto (1997) - [FLAC]\01. Sinfonia.wav" WAVE
TRACK 01 AUDIO
PREGAP 00:00:33
INDEX 01 00:00:00
TRACK 02 AUDIO
INDEX 00 05:42:00
FILE "Giuseppe Verdi - Disc 01 - Oberto (1997) - [FLAC]\02. (Atto primo) - Di Vermiglia, amabil luce (Coro).wav" WAVE
INDEX 01 00:00:00
FILE "Giuseppe Verdi - Disc 01 - Oberto (1997) - [FLAC]\03. Son fra voi! (Riccardo).wav" WAVE
TRACK 03 AUDIO
INDEX 01 00:00:00
TRACK 04 AUDIO
INDEX 00 05:19:00
FILE "Giuseppe Verdi - Disc 01 - Oberto (1997) - [FLAC]\04. Ah, sgombro и il loco alfin! (Leonora).wav" WAVE
INDEX 01 00:00:00
TRACK 05 AUDIO
INDEX 00 08:34:00
FILE "Giuseppe Verdi - Disc 01 - Oberto (1997) - [FLAC]\05. Oh patria terra (Oberto).wav" WAVE
INDEX 01 00:00:00
TRACK 06 AUDIO
INDEX 00 14:02:00
FILE "Giuseppe Verdi - Disc 01 - Oberto (1997) - [FLAC]\06. Fidanzata avventurosa (Coro).wav" WAVE
INDEX 01 00:00:00
FILE "Giuseppe Verdi - Disc 01 - Oberto (1997) - [FLAC]\07. Basta, basta oh fedeli! (Cuniza).wav" WAVE
TRACK 07 AUDIO
INDEX 01 00:00:00
TRACK 08 AUDIO
INDEX 00 08:24:00
FILE "Giuseppe Verdi - Disc 01 - Oberto (1997) - [FLAC]\08. Alta cagione adunque (Imelda).wav" WAVE
INDEX 01 00:00:00
TRACK 09 AUDIO
INDEX 00 13:16:00
FILE "Giuseppe Verdi - Disc 01 - Oberto (1997) - [FLAC]\09. A me gli amici! (Cuniza).wav" WAVE
INDEX 01 00:00:00

Содержание индексной карты (.CUE) CD 2

REM GENRE Opera
REM DATE 1997
REM DISCID 91127E0A
REM COMMENT "ExactAudioCopy v1.0b1"
FILE "Giuseppe Verdi - Disc 02 - Oberto (1997) - [FLAC]\01. ATTO II.- Infelice! nel core tradito (Coro).wav" WAVE
TRACK 01 AUDIO
PREGAP 00:00:33
INDEX 01 00:00:00
FILE "Giuseppe Verdi - Disc 02 - Oberto (1997) - [FLAC]\02. II.- Dov'и l'astro che nel cielo (Coro).wav" WAVE
TRACK 02 AUDIO
INDEX 01 00:00:00
FILE "Giuseppe Verdi - Disc 02 - Oberto (1997) - [FLAC]\03. II.- Ei tarda ancor!... (Oberto).wav" WAVE
TRACK 03 AUDIO
INDEX 01 00:00:00
FILE "Giuseppe Verdi - Disc 02 - Oberto (1997) - [FLAC]\04. II.- Eccolo! (Oberto).wav" WAVE
TRACK 04 AUDIO
INDEX 01 00:00:00
FILE "Giuseppe Verdi - Disc 02 - Oberto (1997) - [FLAC]\05. II.- Li vedeste (Coro).wav" WAVE
TRACK 05 AUDIO
INDEX 01 00:00:00
FILE "Giuseppe Verdi - Disc 02 - Oberto (1997) - [FLAC]\06. II.- Ciel, che feci!... (Riccardo).wav" WAVE
TRACK 06 AUDIO
INDEX 01 00:00:00
TRACK 07 AUDIO
INDEX 00 04:01:45
FILE "Giuseppe Verdi - Disc 02 - Oberto (1997) - [FLAC]\07. II.- Dove son... li cerco invano! (Cuniza).wav" WAVE
INDEX 01 00:00:00
TRACK 08 AUDIO
INDEX 00 14:36:00
FILE "Giuseppe Verdi - Disc 02 - Oberto (1997) - [FLAC]\08. APЙNDICES.- Al padre io corro (Leonora).wav" WAVE
INDEX 01 00:00:00
TRACK 09 AUDIO
INDEX 00 09:22:00
FILE "Giuseppe Verdi - Disc 02 - Oberto (1997) - [FLAC]\09. AP.- Oh fedeli! a me diletto (Cuniza).wav" WAVE
INDEX 01 00:00:00
TRACK 10 AUDIO
INDEX 00 05:58:00
FILE "Giuseppe Verdi - Disc 02 - Oberto (1997) - [FLAC]\10. AP.- Basta, basta oh fedeli! (Cuniza).wav" WAVE
INDEX 01 00:00:00

Треклист

Disc 1:
1. Sinfonia
Act I:
2. Introduzione: Di vermiglia, amabil luce
3. Aria: Son fra voi! - Gia parmi d' udire il fremito
4. Scena e Cavatina: Ah, sgombro e il loco alfin - Sotto il paterno tetto
5. Scena e Duetto: Oh patria terra - Guardami! Sul mio ciglio
6. Coro: Fidanzata avventurosa
7. Recitativo e Duetto: Basta, basta o fedeli! - Il pensier d'un amore felice
8. Scena e Terzetto: Alta cagione adunque - Son io stesso! A te davanti
9. Finale 1: A me gli amici!
Disc 2:
1. Recitativo ed Aria: Infelice! nel core tradito - Oh, chi torna l' ardente pensiero
Act II:
2. Coro: Dov' e l' astro che nel cielo
3. Recitativo ed Aria: Ei tarda ancor! - L' orror del tradimento
4. Recitativo, Scena e Quartetto: Eccolo! - Vili all'armi, a donne eroi
5. Coro di Cavalieri: Li vedeste - Ah si! la mano
6. Romanza: Ciel, che feci! ... di quel sangue
7. Scena e Rondo Finale: Dove son? ... li cero invano! - Sciagurata! a questo lido
Appendices:
8. Altro n. 11 Scena e Duetto: Al padre io corro
9. Altra Cavatina di Cuniza: Atto 1: O fedeli! a me diletto
10. Altro n. 6 Recitativo e Duetto: Basta, basta o fedeli! - Ah, Riccardo



Показать сообщения:    

Текущее время: 09-Дек 16:33

Часовой пояс: UTC + 3


Вы не можете начинать темы
Вы не можете отвечать на сообщения
Вы не можете редактировать свои сообщения
Вы не можете удалять свои сообщения
Вы не можете голосовать в опросах
Вы не можете прикреплять файлы к сообщениям
Вы не можете скачивать файлы