Udaya - Yoga in a Elevator with Jeff Beaudoin


Статистика раздачи [Обновить пиров]
Размер:  651 MB   |    Зарегистрирован:  8 месяцев 18 дней   |    Скачан:  0 раз

Полного источника не было: Никогда

 
   
 
 
 

[Цитировать]

Yoga in a Elevator with Jeff Beaudoin- -Производитель: Udaya
Тип раздаваемого материала: Видеоурок
Автор: Jeff Beaudoin
Продолжительность: 00:48:09
Сайт производителя: www.udaya.com
Год выпуска: 2015
Язык: Английский
Перевод: Отсутствует
Описание: Не позволяйте ограничения пространства вас от практикующих. Это умеренно сложные 60 минуту постоянного серии требуется не более чем на несколько метров по горизонтали (номер отеля, Manhatten квартира, элеватор, или квадратной). Вы даже не нужен коврик для йоги. Принять клятву активных ноги, затем перемещаются на методично медитативная темпами через ваши бедра, подколенные сухожилия, ягодичные мышцы, quadricepts, телят, плеч и обратно без перемещения ноги более, чем на несколько дюймов.-Don’t let space limitations prevent you from practicing. This moderately challenging 60 minute standing series requires little more than a few horizontal feet (think hotel room, Manhatten apartment, elevator, or work cubical). You don’t even need a yoga mat. Take the oath of active feet, then move at a methodically meditative pace through your hips, hamstrings, glutes, quadricepts, calves, shoulders and back without moving your feet more than a few inches.--

Media Info

General
Complete name : Jeff Beaudoin Yoga - Yoga in a Elevator 60 min.mp4
Format : MPEG-4
Format profile : Base Media / Version 2
Codec ID : mp42
File size : 651 MiB
Duration : 48mn 9s
Overall bit rate mode : Variable
Overall bit rate : 1 889 Kbps
Encoded date : UTC 2036-02-06 06:28:16
Tagged date : UTC 2036-02-06 06:28:16
Writing application : HandBrake 0.10.2 2015060900
Video
ID : 1
Format : AVC
Format/Info : Advanced Video Codec
Format profile : Main@L4.0
Format settings, CABAC : Yes
Format settings, ReFrames : 4 frames
Codec ID : avc1
Codec ID/Info : Advanced Video Coding
Duration : 48mn 9s
Bit rate : 1 722 Kbps
Width : 1 280 pixels
Height : 720 pixels
Display aspect ratio : 16:9
Frame rate mode : Variable
Frame rate : 23.976 fps
Minimum frame rate : 23.974 fps
Maximum frame rate : 23.981 fps
Color space : YUV
Chroma subsampling : 4:2:0
Bit depth : 8 bits
Scan type : Progressive
Bits/(Pixel*Frame) : 0.078
Stream size : 593 MiB (91%)
Writing library : x264 core 142 r2479 dd79a61
Encoded date : UTC 2036-02-06 06:28:16
Tagged date : UTC 2036-02-06 06:28:16
Color primaries : BT.709-5, BT.1361, IEC 61966-2-4, SMPTE RP177
Transfer characteristics : BT.709-5, BT.1361
Matrix coefficients : BT.709-5, BT.1361, IEC 61966-2-4 709, SMPTE RP177
Audio
ID : 2
Format : AAC
Format/Info : Advanced Audio Codec
Format profile : LC
Codec ID : 40
Duration : 48mn 9s
Bit rate mode : Variable
Bit rate : 160 Kbps
Channel(s) : 2 channels
Channel positions : Front: L R
Sampling rate : 48.0 KHz
Compression mode : Lossy
Stream size : 55.2 MiB (8%)
Title : Stereo
Encoded date : UTC 2036-02-06 06:28:16
Tagged date : UTC 2036-02-06 06:28:16
Формат: MP4
Видео кодек: H.264
Аудио кодек: AAC
Видео: AVC, 1280x720, 16:9, 25.000 fps, ~ 1818 Kbps
Аудио: AAC, 48.0 KHz, ~ 130.0 Kbps, 2 channels

Скриншоты

[teatrix.ru].t22467.torrent 
Торрент: Зарегистрирован [ 2016-03-20 12:33 ] · 2A293650D40B2A29AD401FD98395BC535157AC0E

Скачать .torrent

Скачать

26 KB

Статус: проверено
Скачан: 0 раз
Размер: 651 MB
terms.php



Быстрый ответ

Имя:

      
Для отправки сообщений необходимо включить JavaScript
Показать сообщения:    

Текущее время: 07-Дек 15:31

Часовой пояс: UTC + 3


Вы можете начинать темы
Вы можете отвечать на сообщения
Вы не можете редактировать свои сообщения
Вы не можете удалять свои сообщения
Вы не можете голосовать в опросах
Вы не можете прикреплять файлы к сообщениям
Вы можете скачивать файлы