The Yoga Collective - Go With The Flow with Mary Beth LaRue [2015, H.264, WEBRip, ENG] (Видеоурок)


Статистика раздачи [Обновить пиров]
Размер:  1021 MB   |    Зарегистрирован:  8 месяцев 15 дней   |    Скачан:  0 раз

Полного источника не было: Никогда

 
   
 
 
 

[Цитировать]

Go With The Flow with Mary Beth LaRue- -Производитель: The Yoga Collective
Тип раздаваемого материала: Видеоурок
Автор: Mary Beth LaRue
Продолжительность: 00:48:48
Сайт производителя: www.theyogacollective.com
Год выпуска: 2015
Язык: Английский
Перевод: Отсутствует
Описание: 20 мин класс:
доступ к по-прежнему, спокойной центра за счет дыхания, намерение и выравнивания как мы через разнообразные балансировки нагрузки представляет. Пиковая представляет: "Игл", воин 3 & постоянный split
40 мин. Класс:
доступ к по-прежнему, спокойной центра за счет дыхания, намерение и выравнивания как мы через различные сочетания представляет. Пиковая представляет: воин 3, райской птицы & дерево-20 min Class:
Access your still, calm center through breath, intention and alignment as we flow through a variety of balancing poses. Peak Poses: Eagle, Warrior 3 & Standing Splits
40 min Class:
Access your still, calm center through breath, intention and alignment as we flow through a variety of balancing poses. Peak Poses: Warrior 3, Bird of Paradise & Tree
Level: Intermediate
Style: Vinyasa
Focus: Balancing Poses, Hamstrings, Strength--

Media Info

General
Complete name : Mary Beth LaRue Yoga - Go With the Flow 40 min.mp4
Format : MPEG-4
Format profile : Base Media / Version 2
Codec ID : mp42
File size : 681 MiB
Duration : 48mn 0s
Overall bit rate mode : Variable
Overall bit rate : 1 985 Kbps
Encoded date : UTC 2036-02-06 06:28:16
Tagged date : UTC 2036-02-06 06:28:16
Writing application : HandBrake 0.10.2 2015060900
Video
ID : 1
Format : AVC
Format/Info : Advanced Video Codec
Format profile : Main@L4.0
Format settings, CABAC : Yes
Format settings, ReFrames : 4 frames
Codec ID : avc1
Codec ID/Info : Advanced Video Coding
Duration : 48mn 0s
Bit rate : 1 818 Kbps
Width : 1 280 pixels
Height : 720 pixels
Display aspect ratio : 16:9
Frame rate mode : Variable
Frame rate : 23.976 fps
Minimum frame rate : 23.974 fps
Maximum frame rate : 23.981 fps
Color space : YUV
Chroma subsampling : 4:2:0
Bit depth : 8 bits
Scan type : Progressive
Bits/(Pixel*Frame) : 0.082
Stream size : 624 MiB (92%)
Writing library : x264 core 142 r2479 dd79a61
Encoded date : UTC 2036-02-06 06:28:16
Tagged date : UTC 2036-02-06 06:28:16
Color primaries : BT.709-5, BT.1361, IEC 61966-2-4, SMPTE RP177
Transfer characteristics : BT.709-5, BT.1361
Matrix coefficients : BT.709-5, BT.1361, IEC 61966-2-4 709, SMPTE RP177
Audio
ID : 2
Format : AAC
Format/Info : Advanced Audio Codec
Format profile : LC
Codec ID : 40
Duration : 48mn 0s
Bit rate mode : Variable
Bit rate : 160 Kbps
Channel(s) : 2 channels
Channel positions : Front: L R
Sampling rate : 48.0 KHz
Compression mode : Lossy
Stream size : 55.0 MiB (8%)
Title : Stereo
Encoded date : UTC 2036-02-06 06:28:16
Tagged date : UTC 2036-02-06 06:28:16
Формат: MP4
Видео кодек: H.264
Аудио кодек: AAC
Видео: AVC, 1280x720, 16:9, 25.000 fps, ~ 1818 Kbps
Аудио: AAC, 48.0 KHz, ~ 130.0 Kbps, 2 channels

Скриншоты

[teatrix.ru].t22469.torrent 
Торрент: Зарегистрирован [ 2016-03-20 12:33 ] · B138FB97BC8079176A707FC5E944B76C3F2B9702

Скачать .torrent

Скачать

40 KB

Статус: проверено
Скачан: 0 раз
Размер: 1021 MB
terms.php



Быстрый ответ

Имя:

      
Для отправки сообщений необходимо включить JavaScript
Показать сообщения:    

Текущее время: 05-Дек 01:26

Часовой пояс: UTC + 3


Вы можете начинать темы
Вы можете отвечать на сообщения
Вы не можете редактировать свои сообщения
Вы не можете удалять свои сообщения
Вы не можете голосовать в опросах
Вы не можете прикреплять файлы к сообщениям
Вы можете скачивать файлы