(Opera) Giuseppe Verdi - Un Ballo in Maschera / Джузеппе Верди - Бал-Маскарад (Georg Solti; Luciano Pavarotti, Renato Bruson, Margaret Price, Christa Ludwig, Kathleen Battle, Robert Lloyd), 1982-1983 - London Studio / 1985 -FLAC (image+.cue),lossless


 

[Цитировать]

Giuseppe Verdi - Un Ballo in Maschera / Джузеппе Верди - Бал-Маскарад (Georg Solti; Luciano Pavarotti, Renato Bruson, Margaret Price, Christa Ludwig, Kathleen Battle, Robert Lloyd)
Жанр: Opera
Страна-производитель диска: Англия
Год издания диска: 1985
Издатель (лейбл): DECCA
Дата записи: 1983
Аудиокодек: FLAC
Тип рипа: image+.cue
Битрейт аудио: lossless
Продолжительность: 130:29
Источник: релизер (cunctator)
Наличие сканов в содержимом раздачи: да
Исполнители:
Riccardo - Luciano Pavarotti,
Renato - Renato Bruson,
Amelia - Margaret Price,
Ulrica - Christa Ludwig,
Oscar - Kathleen Battle,
Silvano - Peter Weber,
Samuele - Robert Lloyd,
Tom - Malcolm King,
Un Giudice - Alexander Oliver.
Conductor - Georg Solti,
National Philharmonic Orchestra,
London Opera Chorus,
Junior Chorus of the Royal College of Music.
Recorded at studio, Kingsway Hall, London, May-June 1982, May 1983.

Лог создания рипаЛог создания рипа CD 1

Exact Audio Copy V1.0 beta 3 from 29. August 2011
EAC extraction logfile from 29. July 2015, 21:24
Pavarotti, Price, Bruson, Solti / Verdi - Un Ballo In Maschera (CD 1)
Used drive : MATSHITADVD-RAM UJ8C2 S Adapter: 0 ID: 0
Read mode : Secure
Utilize accurate stream : Yes
Defeat audio cache : Yes
Make use of C2 pointers : No
Read offset correction : 103
Overread into Lead-In and Lead-Out : No
Fill up missing offset samples with silence : Yes
Delete leading and trailing silent blocks : No
Null samples used in CRC calculations : Yes
Used interface : Native Win32 interface for Win NT & 2000
Used output format : User Defined Encoder
Selected bitrate : 768 kBit/s
Quality : High
Add ID3 tag : No
Command line compressor : C:\Program Files (x86)\Exact Audio Copy\FLAC\FLAC.EXE
Additional command line options : -8 -V -T "ARTIST=%artist%" -T "TITLE=%title%" -T "ALBUM=%albumtitle%" -T "DATE=%year%" -T "TRACKNUMBER=%tracknr%" -T "GENRE=%genre%" -T "PERFORMER=%albuminterpret%" -T "COMPOSER=%composer%" %haslyrics%--tag-from-file=LYRICS="%lyricsfile%"%haslyrics% -T "ALBUMARTIST=%albumartist%" -T "DISCNUMBER=%cdnumber%" -T "TOTALDISCS=%totalcds%" -T "TOTALTRACKS=%numtracks%" -T "COMMENT=%comment%" %source% -o %dest%
TOC of the extracted CD
Track | Start | Length | Start sector | End sector
---------------------------------------------------------
1 | 0:00.33 | 4:29.72 | 33 | 20279
2 | 4:30.30 | 3:24.15 | 20280 | 35594
3 | 7:54.45 | 4:24.73 | 35595 | 55467
4 | 12:19.43 | 4:22.67 | 55468 | 75184
5 | 16:42.35 | 5:00.23 | 75185 | 97707
6 | 21:42.58 | 9:31.10 | 97708 | 140542
7 | 31:13.68 | 5:19.62 | 140543 | 164529
8 | 36:33.55 | 6:20.55 | 164530 | 193084
9 | 42:54.35 | 3:24.48 | 193085 | 208432
10 | 46:19.08 | 4:13.35 | 208433 | 227442
11 | 50:32.43 | 2:17.62 | 227443 | 237779
12 | 52:50.30 | 1:36.60 | 237780 | 245039
13 | 54:27.15 | 5:36.60 | 245040 | 270299
14 | 60:04.00 | 9:09.50 | 270300 | 311524
Range status and errors
Selected range
Filename D:\CD 1\Verdi - Un Ballo In Maschera (CD 1) - Solti 1985.wav
Peak level 99.4 %
Extraction speed 2.6 X
Range quality 99.9 %
Test CRC D493AF64
Copy CRC D493AF64
Copy OK
No errors occurred
AccurateRip summary
Track 1 accurately ripped (confidence 18) [EB562086] (AR v2)
Track 2 accurately ripped (confidence 18) [D4F92CCB] (AR v2)
Track 3 accurately ripped (confidence 18) [A21B34EA] (AR v2)
Track 4 accurately ripped (confidence 18) [CF08EF80] (AR v2)
Track 5 accurately ripped (confidence 18) [0F7823A2] (AR v2)
Track 6 accurately ripped (confidence 18) [8B626CE1] (AR v2)
Track 7 accurately ripped (confidence 18) [75CDEE69] (AR v2)
Track 8 accurately ripped (confidence 18) [412E4434] (AR v2)
Track 9 accurately ripped (confidence 19) [3228EF07] (AR v2)
Track 10 accurately ripped (confidence 16) [EB4205F2] (AR v2)
Track 11 accurately ripped (confidence 17) [6CDF9820] (AR v2)
Track 12 accurately ripped (confidence 16) [66F772B5] (AR v2)
Track 13 accurately ripped (confidence 17) [8E43E3D8] (AR v2)
Track 14 accurately ripped (confidence 15) [CBFA25AF] (AR v2)
All tracks accurately ripped
End of status report
---- CUETools DB Plugin V2.1.3
[CTDB TOCID: fRyAmNCV0SI6.2HSmsFbGrDawFE-] found, Submit result: discs with pregaps not supported in this protocol version
[a2b68626] (12/12) Differs in 0 samples @
You can use CUETools to repair this rip.

Лог создания рипа CD 2

Exact Audio Copy V1.0 beta 3 from 29. August 2011
EAC extraction logfile from 29. July 2015, 20:12
Pavarotti, Price, Bruson, Solti / Verdi - Un Ballo in Maschera (CD 2)
Used drive : MATSHITADVD-RAM UJ8C2 S Adapter: 0 ID: 0
Read mode : Secure
Utilize accurate stream : Yes
Defeat audio cache : Yes
Make use of C2 pointers : No
Read offset correction : 103
Overread into Lead-In and Lead-Out : No
Fill up missing offset samples with silence : Yes
Delete leading and trailing silent blocks : No
Null samples used in CRC calculations : Yes
Used interface : Native Win32 interface for Win NT & 2000
Used output format : User Defined Encoder
Selected bitrate : 768 kBit/s
Quality : High
Add ID3 tag : No
Command line compressor : C:\Program Files (x86)\Exact Audio Copy\FLAC\FLAC.EXE
Additional command line options : -8 -V -T "ARTIST=%artist%" -T "TITLE=%title%" -T "ALBUM=%albumtitle%" -T "DATE=%year%" -T "TRACKNUMBER=%tracknr%" -T "GENRE=%genre%" -T "PERFORMER=%albuminterpret%" -T "COMPOSER=%composer%" %haslyrics%--tag-from-file=LYRICS="%lyricsfile%"%haslyrics% -T "ALBUMARTIST=%albumartist%" -T "DISCNUMBER=%cdnumber%" -T "TOTALDISCS=%totalcds%" -T "TOTALTRACKS=%numtracks%" -T "COMMENT=%comment%" %source% -o %dest%
TOC of the extracted CD
Track | Start | Length | Start sector | End sector
---------------------------------------------------------
1 | 0:00.32 | 4:46.00 | 32 | 21481
2 | 4:46.32 | 7:35.38 | 21482 | 55644
3 | 12:21.70 | 2:17.10 | 55645 | 65929
4 | 14:39.05 | 4:43.05 | 65930 | 87159
5 | 19:22.10 | 6:31.47 | 87160 | 116531
6 | 25:53.57 | 3:02.53 | 116532 | 130234
7 | 28:56.35 | 4:55.72 | 130235 | 152431
8 | 33:52.32 | 4:06.40 | 152432 | 170921
9 | 37:58.72 | 5:30.70 | 170922 | 195741
10 | 43:29.67 | 3:34.48 | 195742 | 211839
11 | 47:04.40 | 2:03.32 | 211840 | 221096
12 | 49:07.72 | 1:52.15 | 221097 | 229511
13 | 51:00.12 | 5:21.55 | 229512 | 253641
14 | 56:21.67 | 4:55.28 | 253642 | 275794
Range status and errors
Selected range
Filename D:\CD 2\Verdi - Un Ballo in Maschera (CD 2) - Solti 1985.wav
Peak level 100.0 %
Extraction speed 2.6 X
Range quality 99.9 %
Test CRC 9BA7F6B0
Copy CRC 9BA7F6B0
Copy OK
No errors occurred
AccurateRip summary
Track 1 accurately ripped (confidence 12) [BE1CC8E6] (AR v2)
Track 2 accurately ripped (confidence 12) [6E4E0867] (AR v2)
Track 3 accurately ripped (confidence 12) [9CBB02EF] (AR v2)
Track 4 accurately ripped (confidence 12) [D6DF5FE0] (AR v2)
Track 5 accurately ripped (confidence 12) [C207B1E0] (AR v2)
Track 6 accurately ripped (confidence 12) [C44A45CA] (AR v2)
Track 7 accurately ripped (confidence 12) [5EE04504] (AR v2)
Track 8 accurately ripped (confidence 12) [05C9FD19] (AR v2)
Track 9 accurately ripped (confidence 11) [07371524] (AR v2)
Track 10 accurately ripped (confidence 12) [94217A75] (AR v2)
Track 11 accurately ripped (confidence 12) [83342D90] (AR v2)
Track 12 accurately ripped (confidence 12) [7AAC4755] (AR v2)
Track 13 accurately ripped (confidence 12) [D77BEAA7] (AR v2)
Track 14 accurately ripped (confidence 11) [81BFAF79] (AR v2)
All tracks accurately ripped
End of status report
---- CUETools DB Plugin V2.1.3
[CTDB TOCID: 2l4ho2iOpwyJHxg34.gwTb57_8Q-] found, Submit result: discs with pregaps not supported in this protocol version
[e066026b] (5/8) Differs in 111 samples @00:00:15-00:00:26,00:02:36
[2a6650fc] (3/8) Differs in 53 samples @00:00:15-00:00:26
You can use CUETools to repair this rip.

Содержание индексной карты (.CUE)Содержание индексной карты (.CUE) CD 1

REM GENRE Classical
REM DATE 1985
REM DISCID BD10390E
REM COMMENT "ExactAudioCopy v1.0b3"
PERFORMER "Pavarotti, Price, Bruson, Solti"
TITLE "Verdi - Un Ballo In Maschera (CD 1)"
FILE "Verdi - Un Ballo In Maschera (CD 1) - Solti 1985.flac" WAVE
TRACK 01 AUDIO
TITLE "Act I: Preludio"
PERFORMER "Pavarotti, Price, Bruson, Solti"
INDEX 00 00:00:00
INDEX 01 00:00:33
TRACK 02 AUDIO
TITLE "Posa in pace"
PERFORMER "Pavarotti, Price, Bruson, Solti"
INDEX 00 04:29:63
INDEX 01 04:30:30
TRACK 03 AUDIO
TITLE "La rivedr nell'estasi"
PERFORMER "Pavarotti, Price, Bruson, Solti"
INDEX 01 07:54:45
TRACK 04 AUDIO
TITLE "Alla vita che t'arride"
PERFORMER "Pavarotti, Price, Bruson, Solti"
INDEX 01 12:19:43
TRACK 05 AUDIO
TITLE "Volta a terrea - Ogni cura si doni al diletto"
PERFORMER "Pavarotti, Price, Bruson, Solti"
INDEX 01 16:42:35
INDEX 02 19:23:05
TRACK 06 AUDIO
TITLE "Zitti... l'incanto non dssi turbare - Re dell'abisso, affrettati"
PERFORMER "Pavarotti, Price, Bruson, Solti"
INDEX 00 21:37:25
INDEX 01 21:42:58
INDEX 02 23:36:53
TRACK 07 AUDIO
TITLE "Che v'agita cos - Della citt all'occaso"
PERFORMER "Pavarotti, Price, Bruson, Solti"
INDEX 01 31:13:68
INDEX 02 32:43:35
TRACK 08 AUDIO
TITLE "Su profetessa - Di' tu se fedele - Ors, amici"
PERFORMER "Pavarotti, Price, Bruson, Solti"
INDEX 01 36:33:55
INDEX 02 37:25:53
INDEX 03 41:04:70
TRACK 09 AUDIO
TITLE "Scherzo od follia"
PERFORMER "Pavarotti, Price, Bruson, Solti"
INDEX 01 42:54:35
TRACK 10 AUDIO
TITLE "Finisci il vaticinio"
PERFORMER "Pavarotti, Price, Bruson, Solti"
INDEX 01 46:19:08
TRACK 11 AUDIO
TITLE "Act II: Preludi"
PERFORMER "Pavarotti, Price, Bruson, Solti"
INDEX 00 50:22:38
INDEX 01 50:32:43
TRACK 12 AUDIO
TITLE "Ecco l'orrido campo"
PERFORMER "Pavarotti, Price, Bruson, Solti"
INDEX 01 52:50:30
TRACK 13 AUDIO
TITLE "Ma dall'arido stelo divulsa"
PERFORMER "Pavarotti, Price, Bruson, Solti"
INDEX 01 54:27:15
TRACK 14 AUDIO
TITLE "Teco io sto"
PERFORMER "Pavarotti, Price, Bruson, Solti"
INDEX 01 60:04:00

Содержание индексной карты (.CUE) CD 2

REM GENRE Opera
REM DATE 1985
REM DISCID C70E5D0E
REM COMMENT "ExactAudioCopy v1.0b3"
PERFORMER "Pavarotti, Price, Bruson, Solti"
TITLE "Verdi - Un Ballo in Maschera (CD 2)"
FILE "Verdi - Un Ballo in Maschera (CD 2) - Solti 1985.flac" WAVE
TRACK 01 AUDIO
TITLE "Ahime! S'appressa alcun! - Per salvarti da lor"
PERFORMER "Pavarotti, Price, Bruson, Solti"
INDEX 00 00:00:00
INDEX 01 00:00:32
INDEX 02 00:26:72
TRACK 02 AUDIO
TITLE "Seguitemi - Ve' se di notte"
PERFORMER "Pavarotti, Price, Bruson, Solti"
INDEX 01 04:46:32
INDEX 02 07:18:50
TRACK 03 AUDIO
TITLE "Atal colpa nulla il pianto"
PERFORMER "Pavarotti, Price, Bruson, Solti"
INDEX 00 12:11:67
INDEX 01 12:21:70
TRACK 04 AUDIO
TITLE "Morr, ma prima in grazia"
PERFORMER "Pavarotti, Price, Bruson, Solti"
INDEX 01 14:39:05
TRACK 05 AUDIO
TITLE "Alzati: l tuo figlio - Eri tu"
PERFORMER "Pavarotti, Price, Bruson, Solti"
INDEX 01 19:22:10
INDEX 02 21:27:52
TRACK 06 AUDIO
TITLE "Siam soli. Udite - Dunque l'onta di tutti sol una"
PERFORMER "Pavarotti, Price, Bruson, Solti"
INDEX 01 25:53:57
INDEX 02 28:11:37
TRACK 07 AUDIO
TITLE "D'una grazia vi supplico"
PERFORMER "Pavarotti, Price, Bruson, Solti"
INDEX 01 28:56:35
TRACK 08 AUDIO
TITLE "Il messaggio entri - Ah! di che fulgor"
PERFORMER "Pavarotti, Price, Bruson, Solti"
INDEX 01 33:52:32
INDEX 02 34:46:00
TRACK 09 AUDIO
TITLE "Forse la soglia attinse - Ma se m' forza perderti"
PERFORMER "Pavarotti, Price, Bruson, Solti"
INDEX 00 37:53:07
INDEX 01 37:58:72
INDEX 02 40:36:55
TRACK 10 AUDIO
TITLE "Ah! dess e l"
PERFORMER "Pavarotti, Price, Bruson, Solti"
INDEX 01 43:29:67
TRACK 11 AUDIO
TITLE "Saper vorreste"
PERFORMER "Pavarotti, Price, Bruson, Solti"
INDEX 01 47:04:40
TRACK 12 AUDIO
TITLE "Fervono amori e danze"
PERFORMER "Pavarotti, Price, Bruson, Solti"
INDEX 01 49:07:72
TRACK 13 AUDIO
TITLE "Ah! perch qui! fuggite"
PERFORMER "Pavarotti, Price, Bruson, Solti"
INDEX 01 51:00:12
TRACK 14 AUDIO
TITLE "Ella e pura"
PERFORMER "Pavarotti, Price, Bruson, Solti"
INDEX 01 56:21:67

Треклист

Disc 1:
Act 1:
1. Preludio
2. Posa in pace
3. La rivedrà nell'estasi
4. Alla vita che t'arride
5. Volta la terrea...Ogni cura si doni al diletto
6. Zitti...l'incanto non dèssi turbare...Re dell'abisso, affrettati
7. Che v'agita così?...Della città all'occaso
8. Su profetessa.. Di' tu se fedele... Orsù, amici
9. È scherzo od è follia
10. Finisci il vaticinio
Act 2:
11. Preludio
12. Ecco l'orrido campo
13. Ma dall'arido stelo divulsa
14. Teco io sto
Disc 2:
1. Ahime! S'appressa alcun!...Per salvarti da lor
2. Seguitemi
Act 3:
3. Atal colpa è nulla il pianto
4. Morrò, ma prima in grazia
5. Alzati: là tuo figlio...Eri tu
6. Siam soli. Udite...Dunque l'onta di tutti sol una
7. D'una grazia vi supplico
8. Il messaggio entri... Ah! di che fulgor
9. Forse la soglia attinse... Ma se m'è forza perderti
10. Ah! dessa è la
11. Saper vorreste
12. Fervono amori e danze
13. Ah! perchè qui! fuggite
14. Ella è pura



Показать сообщения:    

Текущее время: 08-Дек 03:10

Часовой пояс: UTC + 3


Вы не можете начинать темы
Вы не можете отвечать на сообщения
Вы не можете редактировать свои сообщения
Вы не можете удалять свои сообщения
Вы не можете голосовать в опросах
Вы не можете прикреплять файлы к сообщениям
Вы не можете скачивать файлы