(Opera) Giuseppe Verdi - La Forza del Destino / Джузеппе Верди - Сила судьбы (Giuseppe Sinopoli; Rosalind Plowright, Renato Bruson, Jose Carreras, Agnes Baltsa, Juan Pons, John Tomlinson, Paata Burchuladze),1985-Studio/FLAC(tracks+.cue),lossless


 

[Цитировать]

Giuseppe Verdi - La Forza del Destino / Джузеппе Верди - Сила судьбы (Giuseppe Sinopoli; Rosalind Plowright, Renato Bruson, José Carreras, Agnes Baltsa, Juan Pons, John Tomlinson, Paata Burchuladze)
Жанр: Opera
Страна-производитель диска: CША
Год издания диска: 1990
Издатель (лейбл): Deutsche Grammophon
Дата записи: 1985
Аудиокодек: FLAC
Тип рипа: tracks+.cue
Битрейт аудио: lossless
Продолжительность: 178:47
Источник: релизер (kat)
Исполнители:
Il Marchese di Calatrava - John Tomlinson,
Leonora di Vargas - Rosalind Plowright,
Don Carlo - Renato Bruson,
Don Alvaro - José Carreras,
Preziosilla - Agnes Baltsa,
Fra Melitone - Juan (Joan) Pons,
Curra - Jean Rigby,
Padre Guardiano - Paata Burchuladze,
Mastro Trabuco - Mark Curtis,
Un Chirurgo - Petteri Salomaa,
Un Alcalde - Richard Van Allan.
Conductor - Giuseppe Sinopoli,
Philharmonia Orchestra,
Ambrosian Opera Chorus.
Recorded at Watford Town Hall, Watford, Hertfordshire, England, September, 1985.

Лог создания рипаЛог создания рипа CD 1

Exact Audio Copy V1.0 beta 1 from 15. November 2010
EAC extraction logfile from 8. May 2011, 16:53
Giuseppe Verdi / Disc 55 - La Forza Del Destino
Used drive : MATSHITADVD+-RW UJ-867S Adapter: 0 ID: 0
Read mode : Secure
Utilize accurate stream : Yes
Defeat audio cache : Yes
Make use of C2 pointers : No
Read offset correction : 102
Overread into Lead-In and Lead-Out : No
Fill up missing offset samples with silence : Yes
Delete leading and trailing silent blocks : No
Null samples used in CRC calculations : Yes
Used interface : Native Win32 interface for Win NT & 2000
Gap handling : Appended to previous track
Used output format : User Defined Encoder
Selected bitrate : 768 kBit/s
Quality : High
Add ID3 tag : No
Command line compressor : C:\Program Files\Exact Audio Copy\FLAC\FLAC.EXE
Additional command line options : -V -8 -T "artist=%a" -T "title=%t" -T "album=%g" -T "date=%y" -T "tracknumber=%n" -T "genre=%m" %s
TOC of the extracted CD
Track | Start | Length | Start sector | End sector
---------------------------------------------------------
1 | 0:00.33 | 7:53.50 | 33 | 35557
2 | 7:54.08 | 2:42.45 | 35558 | 47752
3 | 10:36.53 | 1:36.47 | 47753 | 54999
4 | 12:13.25 | 3:47.20 | 55000 | 72044
5 | 16:00.45 | 0:27.13 | 72045 | 74082
6 | 16:27.58 | 7:35.35 | 74083 | 108242
7 | 24:03.18 | 2:19.15 | 108243 | 118682
8 | 26:22.33 | 1:12.35 | 118683 | 124117
9 | 27:34.68 | 1:56.02 | 124118 | 132819
10 | 29:30.70 | 3:09.38 | 132820 | 147032
11 | 32:40.33 | 4:26.62 | 147033 | 167044
12 | 37:07.20 | 2:29.63 | 167045 | 178282
13 | 39:37.08 | 2:29.22 | 178283 | 189479
14 | 42:06.30 | 3:02.65 | 189480 | 203194
Track 1
Filename D:\downloads\Giuseppe Verdi - Complete Operas [FLAC]\Giuseppe Verdi - Disc 55 - La Forza Del Destino (1987) - [FLAC]\01. Sinfonia Overture.wav
Pre-gap length 0:00:02.44
Peak level 91.1 %
Extraction speed 0.9 X
Track quality 100.0 %
Test CRC 2D5643C0
Copy CRC 2D5643C0
Accurately ripped (confidence 6) [C1CC4EE2]
Copy OK
Track 2
Filename D:\downloads\Giuseppe Verdi - Complete Operas [FLAC]\Giuseppe Verdi - Disc 55 - La Forza Del Destino (1987) - [FLAC]\02. Introduzione - Scena Buona Notte, Mia Figlia.wav
Pre-gap length 0:00:03.00
Peak level 19.8 %
Extraction speed 0.9 X
Track quality 100.0 %
Test CRC F843E9E7
Copy CRC F843E9E7
Accurately ripped (confidence 6) [5712018B]
Copy OK
Track 3
Filename D:\downloads\Giuseppe Verdi - Complete Operas [FLAC]\Giuseppe Verdi - Disc 55 - La Forza Del Destino (1987) - [FLAC]\03. Recitativo Temea Restasse Qui Fino A Domani.wav
Peak level 36.1 %
Extraction speed 0.2 X
Track quality 99.8 %
Test CRC 67E2AF22
Copy CRC 67E2AF22
Accurately ripped (confidence 6) [9C4C6A62]
Copy OK
Track 4
Filename D:\downloads\Giuseppe Verdi - Complete Operas [FLAC]\Giuseppe Verdi - Disc 55 - La Forza Del Destino (1987) - [FLAC]\04. Romanza Me Peelegrina Ed Orfana.wav
Peak level 58.0 %
Extraction speed 1.0 X
Track quality 100.0 %
Test CRC 7FA305C4
Copy CRC 7FA305C4
Accurately ripped (confidence 6) [6B1BAC44]
Copy OK
Track 5
Filename D:\downloads\Giuseppe Verdi - Complete Operas [FLAC]\Giuseppe Verdi - Disc 55 - La Forza Del Destino (1987) - [FLAC]\05. Scena M'aiuti, Signorina.wav
Pre-gap length 0:00:00.42
Peak level 44.9 %
Extraction speed 0.5 X
Track quality 100.0 %
Test CRC 5B1C74BA
Copy CRC 5B1C74BA
Accurately ripped (confidence 6) [35698BE7]
Copy OK
Track 6
Filename D:\downloads\Giuseppe Verdi - Complete Operas [FLAC]\Giuseppe Verdi - Disc 55 - La Forza Del Destino (1987) - [FLAC]\06. Duetto Ah, Per Sempre ... Seguirti Fino Agl'ultimi.wav
Peak level 81.1 %
Extraction speed 1.1 X
Track quality 100.0 %
Test CRC FF1FCE91
Copy CRC FF1FCE91
Accurately ripped (confidence 6) [39899640]
Copy OK
Track 7
Filename D:\downloads\Giuseppe Verdi - Complete Operas [FLAC]\Giuseppe Verdi - Disc 55 - La Forza Del Destino (1987) - [FLAC]\07. Scena - Finale E Tardi ... Vil Seduttor.wav
Peak level 79.4 %
Extraction speed 1.0 X
Track quality 100.0 %
Test CRC 13764D7C
Copy CRC 13764D7C
Accurately ripped (confidence 6) [5F7A8987]
Copy OK
Track 8
Filename D:\downloads\Giuseppe Verdi - Complete Operas [FLAC]\Giuseppe Verdi - Disc 55 - La Forza Del Destino (1987) - [FLAC]\08. Coro - Ballabile Hola, Hola, Hola! Ben Giungi, O Mulattier.wav
Pre-gap length 0:00:07.00
Peak level 76.5 %
Extraction speed 0.8 X
Track quality 100.0 %
Test CRC 2D62E578
Copy CRC 2D62E578
Accurately ripped (confidence 6) [3739331D]
Copy OK
Track 9
Filename D:\downloads\Giuseppe Verdi - Complete Operas [FLAC]\Giuseppe Verdi - Disc 55 - La Forza Del Destino (1987) - [FLAC]\09. Scena - Recitativo La Cena E Pronta ... Viva La Guerra.wav
Peak level 77.9 %
Extraction speed 0.9 X
Track quality 100.0 %
Test CRC 0E7AF693
Copy CRC 0E7AF693
Accurately ripped (confidence 6) [BBA70985]
Copy OK
Track 10
Filename D:\downloads\Giuseppe Verdi - Complete Operas [FLAC]\Giuseppe Verdi - Disc 55 - La Forza Del Destino (1987) - [FLAC]\10. Canzone Al Suon Del Tamburro.wav
Peak level 91.0 %
Extraction speed 1.1 X
Track quality 100.0 %
Test CRC 21E2D597
Copy CRC 21E2D597
Accurately ripped (confidence 6) [1030CE19]
Copy OK
Track 11
Filename D:\downloads\Giuseppe Verdi - Complete Operas [FLAC]\Giuseppe Verdi - Disc 55 - La Forza Del Destino (1987) - [FLAC]\11. Preghiera Padre Eterno Signor ... Pieta Di Noi.wav
Peak level 50.5 %
Extraction speed 1.1 X
Track quality 100.0 %
Test CRC B113E6DD
Copy CRC B113E6DD
Accurately ripped (confidence 6) [F634BA77]
Copy OK
Track 12
Filename D:\downloads\Giuseppe Verdi - Complete Operas [FLAC]\Giuseppe Verdi - Disc 55 - La Forza Del Destino (1987) - [FLAC]\12. Scena - Recitativo Viva La Buona Compagnia ... Poich'imberbe E L'incognito.wav
Peak level 59.5 %
Extraction speed 0.3 X
Track quality 100.0 %
Test CRC 1371F645
Copy CRC 1371F645
Accurately ripped (confidence 6) [3DF8531A]
Copy OK
Track 13
Filename D:\downloads\Giuseppe Verdi - Complete Operas [FLAC]\Giuseppe Verdi - Disc 55 - La Forza Del Destino (1987) - [FLAC]\13. Ballata Son Pereda, Son Ricco D'onore.wav
Peak level 75.8 %
Extraction speed 1.1 X
Track quality 100.0 %
Test CRC 793373ED
Copy CRC 793373ED
Accurately ripped (confidence 6) [D28F6F16]
Copy OK
Track 14
Filename D:\downloads\Giuseppe Verdi - Complete Operas [FLAC]\Giuseppe Verdi - Disc 55 - La Forza Del Destino (1987) - [FLAC]\14. Scena, Coro Sta Bene.wav
Peak level 89.1 %
Extraction speed 1.1 X
Track quality 100.0 %
Test CRC 23F6B15F
Copy CRC 23F6B15F
Accurately ripped (confidence 6) [8BF8D152]
Copy OK
All tracks accurately ripped
No errors occurred
End of status report
==== Log checksum 3F483D0E82FBF83B851A0C804D9BB91A702EA66ED4F2C7E12DC6E7851DEA371B ====

Лог создания рипа CD 2

Exact Audio Copy V1.0 beta 1 from 15. November 2010
EAC extraction logfile from 8. May 2011, 18:15
Giuseppe Verdi / Disc 56 - La Forza Del Destino
Used drive : MATSHITADVD+-RW UJ-867S Adapter: 0 ID: 0
Read mode : Secure
Utilize accurate stream : Yes
Defeat audio cache : Yes
Make use of C2 pointers : No
Read offset correction : 102
Overread into Lead-In and Lead-Out : No
Fill up missing offset samples with silence : Yes
Delete leading and trailing silent blocks : No
Null samples used in CRC calculations : Yes
Used interface : Native Win32 interface for Win NT & 2000
Gap handling : Appended to previous track
Used output format : User Defined Encoder
Selected bitrate : 768 kBit/s
Quality : High
Add ID3 tag : No
Command line compressor : C:\Program Files\Exact Audio Copy\FLAC\FLAC.EXE
Additional command line options : -V -8 -T "artist=%a" -T "title=%t" -T "album=%g" -T "date=%y" -T "tracknumber=%n" -T "genre=%m" %s
TOC of the extracted CD
Track | Start | Length | Start sector | End sector
---------------------------------------------------------
1 | 0:00.33 | 6:55.60 | 33 | 31217
2 | 6:56.18 | 2:22.15 | 31218 | 41882
3 | 9:18.33 | 13:44.25 | 41883 | 103707
4 | 23:02.58 | 12:35.50 | 103708 | 160382
5 | 35:38.33 | 0:42.25 | 160383 | 163557
6 | 36:20.58 | 6:48.50 | 163558 | 194207
7 | 43:09.33 | 2:47.25 | 194208 | 206757
8 | 45:56.58 | 3:04.57 | 206758 | 220614
9 | 49:01.40 | 3:52.18 | 220615 | 238032
10 | 52:53.58 | 4:25.12 | 238033 | 257919
11 | 57:18.70 | 2:18.38 | 257920 | 268307
12 | 59:37.33 | 5:50.25 | 268308 | 294582
Track 1
Filename D:\downloads\Giuseppe Verdi - Complete Operas [FLAC]\Giuseppe Verdi - Disc 56 - La Forza Del Destino (1987) - [FLAC]\01. Son Giunta! Grazie, O Dio! ... Madre, Pietosa Vergine , Aria.wav
Pre-gap length 0:00:02.44
Peak level 93.2 %
Extraction speed 1.4 X
Track quality 100.0 %
Test CRC 9A73FA3B
Copy CRC 9A73FA3B
Accurately ripped (confidence 5) [F1A1AF07]
Copy OK
Track 2
Filename D:\downloads\Giuseppe Verdi - Complete Operas [FLAC]\Giuseppe Verdi - Disc 56 - La Forza Del Destino (1987) - [FLAC]\02. Scena , Chi Siete.wav
Pre-gap length 0:00:00.40
Peak level 32.6 %
Extraction speed 1.4 X
Track quality 100.0 %
Test CRC 590E52B0
Copy CRC 590E52B0
Accurately ripped (confidence 5) [C42A4817]
Copy OK
Track 3
Filename D:\downloads\Giuseppe Verdi - Complete Operas [FLAC]\Giuseppe Verdi - Disc 56 - La Forza Del Destino (1987) - [FLAC]\03. Scena E Duetto , Chi Mi Cerca ... Infelice, Delusa, Reietta.wav
Pre-gap length 0:00:00.66
Peak level 80.9 %
Extraction speed 1.1 X
Track quality 100.0 %
Test CRC F2AF7D84
Copy CRC F2AF7D84
Accurately ripped (confidence 5) [524E2BF4]
Copy OK
Track 4
Filename D:\downloads\Giuseppe Verdi - Complete Operas [FLAC]\Giuseppe Verdi - Disc 56 - La Forza Del Destino (1987) - [FLAC]\04. Finale II , Il Santo Nome Di Dio Signore ... La Vergine Degli Angeli.wav
Pre-gap length 0:00:02.33
Peak level 92.7 %
Extraction speed 2.0 X
Track quality 100.0 %
Test CRC 6F447535
Copy CRC 6F447535
Accurately ripped (confidence 5) [2E9BA5C8]
Copy OK
Track 5
Filename D:\downloads\Giuseppe Verdi - Complete Operas [FLAC]\Giuseppe Verdi - Disc 56 - La Forza Del Destino (1987) - [FLAC]\05. Scena , Attenti Al Gioco.wav
Pre-gap length 0:00:06.00
Peak level 51.2 %
Extraction speed 1.1 X
Track quality 100.0 %
Test CRC E234BF71
Copy CRC E234BF71
Accurately ripped (confidence 5) [D3ACF954]
Copy OK
Track 6
Filename D:\downloads\Giuseppe Verdi - Complete Operas [FLAC]\Giuseppe Verdi - Disc 56 - La Forza Del Destino (1987) - [FLAC]\06. Scena , La Vita E Inferno All'infelice.wav
Peak level 36.1 %
Extraction speed 2.1 X
Track quality 100.0 %
Test CRC 580D8615
Copy CRC 580D8615
Accurately ripped (confidence 5) [3039C855]
Copy OK
Track 7
Filename D:\downloads\Giuseppe Verdi - Complete Operas [FLAC]\Giuseppe Verdi - Disc 56 - La Forza Del Destino (1987) - [FLAC]\07. Romanza , Oh Tu Che In Sena Agli Angeli.wav
Peak level 46.5 %
Extraction speed 1.8 X
Track quality 100.0 %
Test CRC A6A18DF2
Copy CRC A6A18DF2
Accurately ripped (confidence 5) [99A86FD3]
Copy OK
Track 8
Filename D:\downloads\Giuseppe Verdi - Complete Operas [FLAC]\Giuseppe Verdi - Disc 56 - La Forza Del Destino (1987) - [FLAC]\08. Scena E Duettino , Al Tradimento ... Amici In Vita, In Morte.wav
Pre-gap length 0:00:01.17
Peak level 77.5 %
Extraction speed 1.9 X
Track quality 100.0 %
Test CRC FF29BB0C
Copy CRC FF29BB0C
Accurately ripped (confidence 5) [1F143BEE]
Copy OK
Track 9
Filename D:\downloads\Giuseppe Verdi - Complete Operas [FLAC]\Giuseppe Verdi - Disc 56 - La Forza Del Destino (1987) - [FLAC]\09. Scena , All'armi ... Arde La Mischia ... Piano ... Qui Posi.wav
Peak level 89.1 %
Extraction speed 2.0 X
Track quality 100.0 %
Test CRC 4B2816C4
Copy CRC 4B2816C4
Accurately ripped (confidence 5) [61320274]
Copy OK
Track 10
Filename D:\downloads\Giuseppe Verdi - Complete Operas [FLAC]\Giuseppe Verdi - Disc 56 - La Forza Del Destino (1987) - [FLAC]\10. Duettino , Solenne In Quest'ora.wav
Peak level 40.0 %
Extraction speed 2.0 X
Track quality 100.0 %
Test CRC 6E01261C
Copy CRC 6E01261C
Accurately ripped (confidence 5) [1B568E25]
Copy OK
Track 11
Filename D:\downloads\Giuseppe Verdi - Complete Operas [FLAC]\Giuseppe Verdi - Disc 56 - La Forza Del Destino (1987) - [FLAC]\11. Scena , Morir! Tremenda Cosa!.wav
Peak level 54.4 %
Extraction speed 1.8 X
Track quality 100.0 %
Test CRC A0301F56
Copy CRC A0301F56
Accurately ripped (confidence 5) [19339A12]
Copy OK
Track 12
Filename D:\downloads\Giuseppe Verdi - Complete Operas [FLAC]\Giuseppe Verdi - Disc 56 - La Forza Del Destino (1987) - [FLAC]\12. Urna Fatale Del Mio Destino .. Egli E Salvo! , Aria.wav
Peak level 90.7 %
Extraction speed 1.9 X
Track quality 99.9 %
Test CRC 34198468
Copy CRC 34198468
Accurately ripped (confidence 5) [F5BBC809]
Copy OK
All tracks accurately ripped
No errors occurred
End of status report
==== Log checksum 34F709B3856C4906230F46371EE68B40334839D75BAC7DBBAF7F0147EE26033E ====

Лог создания рипа CD 3

Exact Audio Copy V1.0 beta 1 from 15. November 2010
EAC extraction logfile from 8. May 2011, 21:46
Giuseppe Verdi / Disc 57 - La Forza Del Destino
Used drive : MATSHITADVD+-RW UJ-867S Adapter: 0 ID: 0
Read mode : Secure
Utilize accurate stream : Yes
Defeat audio cache : Yes
Make use of C2 pointers : No
Read offset correction : 102
Overread into Lead-In and Lead-Out : No
Fill up missing offset samples with silence : Yes
Delete leading and trailing silent blocks : No
Null samples used in CRC calculations : Yes
Used interface : Native Win32 interface for Win NT & 2000
Gap handling : Appended to previous track
Used output format : User Defined Encoder
Selected bitrate : 768 kBit/s
Quality : High
Add ID3 tag : No
Command line compressor : C:\Program Files\Exact Audio Copy\FLAC\FLAC.EXE
Additional command line options : -V -8 -T "artist=%a" -T "title=%t" -T "album=%g" -T "date=%y" -T "tracknumber=%n" -T "genre=%m" %s
TOC of the extracted CD
Track | Start | Length | Start sector | End sector
---------------------------------------------------------
1 | 0:00.33 | 2:43.00 | 33 | 12257
2 | 2:43.33 | 9:04.67 | 12258 | 53124
3 | 11:48.25 | 0:51.05 | 53125 | 56954
4 | 12:39.30 | 1:24.03 | 56955 | 63257
5 | 14:03.33 | 0:58.00 | 63258 | 67607
6 | 15:01.33 | 3:37.37 | 67608 | 83919
7 | 18:38.70 | 1:32.00 | 83920 | 90819
8 | 20:10.70 | 2:02.68 | 90820 | 100037
9 | 22:13.63 | 4:07.70 | 100038 | 118632
10 | 26:21.58 | 3:14.50 | 118633 | 133232
11 | 29:36.33 | 7:25.52 | 133233 | 166659
12 | 37:02.10 | 6:06.35 | 166660 | 194144
13 | 43:08.45 | 9:12.38 | 194145 | 235582
14 | 52:21.08 | 6:15.25 | 235583 | 263732
15 | 58:36.33 | 9:35.00 | 263733 | 306857
Track 1
Filename D:\downloads\Giuseppe Verdi - Complete Operas [FLAC]\Giuseppe Verdi - Disc 57 - La Forza Del Destino (1987) - [FLAC]\01. Ronda , Compagni, Sostiamo.wav
Pre-gap length 0:00:02.44
Peak level 27.0 %
Extraction speed 0.8 X
Track quality 100.0 %
Test CRC 603CB86F
Copy CRC 603CB86F
Accurately ripped (confidence 5) [0B33665A]
Copy OK
Track 2
Filename D:\downloads\Giuseppe Verdi - Complete Operas [FLAC]\Giuseppe Verdi - Disc 57 - La Forza Del Destino (1987) - [FLAC]\02. Scena E Duetto , Ne Gustare M'e Dato Un'ora Di Quiete ... Oh Tradimento.wav
Pre-gap length 0:00:01.06
Peak level 91.1 %
Extraction speed 0.9 X
Track quality 99.9 %
Test CRC CB393933
Copy CRC CB393933
Accurately ripped (confidence 6) [6EE322F0]
Copy OK
Track 3
Filename D:\downloads\Giuseppe Verdi - Complete Operas [FLAC]\Giuseppe Verdi - Disc 57 - La Forza Del Destino (1987) - [FLAC]\03. Lorche Pifferi E Tamburi , Coro.wav
Peak level 83.1 %
Extraction speed 0.6 X
Track quality 100.0 %
Test CRC 43135FEA
Copy CRC 43135FEA
Accurately ripped (confidence 6) [57FE1915]
Copy OK
Track 4
Filename D:\downloads\Giuseppe Verdi - Complete Operas [FLAC]\Giuseppe Verdi - Disc 57 - La Forza Del Destino (1987) - [FLAC]\04. Strofe , Venite All'indovina.wav
Peak level 86.2 %
Extraction speed 0.6 X
Track quality 99.8 %
Test CRC C27F538C
Copy CRC C27F538C
Accurately ripped (confidence 6) [E0A91547]
Copy OK
Track 5
Filename D:\downloads\Giuseppe Verdi - Complete Operas [FLAC]\Giuseppe Verdi - Disc 57 - La Forza Del Destino (1987) - [FLAC]\05. Scena , Qua, Vivandiere, Un Sorso.wav
Peak level 83.9 %
Extraction speed 0.6 X
Track quality 100.0 %
Test CRC 08AFCAF0
Copy CRC 08AFCAF0
Accurately ripped (confidence 6) [4A07770D]
Copy OK
Track 6
Filename D:\downloads\Giuseppe Verdi - Complete Operas [FLAC]\Giuseppe Verdi - Disc 57 - La Forza Del Destino (1987) - [FLAC]\06. Arietta - Coro , A Buon Mercato ... Pane, Pan Per Carita.wav
Peak level 50.8 %
Extraction speed 0.8 X
Track quality 99.9 %
Test CRC 55DAE5FD
Copy CRC 55DAE5FD
Accurately ripped (confidence 6) [B9F7766A]
Copy OK
Track 7
Filename D:\downloads\Giuseppe Verdi - Complete Operas [FLAC]\Giuseppe Verdi - Disc 57 - La Forza Del Destino (1987) - [FLAC]\07. Che Vergogna! , Coro.wav
Peak level 85.1 %
Extraction speed 0.8 X
Track quality 100.0 %
Test CRC 70A0AEA1
Copy CRC 70A0AEA1
Accurately ripped (confidence 6) [5BD62359]
Copy OK
Track 8
Filename D:\downloads\Giuseppe Verdi - Complete Operas [FLAC]\Giuseppe Verdi - Disc 57 - La Forza Del Destino (1987) - [FLAC]\08. Coro - Tarantella , Nel Guerra, E La Follia.wav
Peak level 87.0 %
Extraction speed 0.2 X
Track quality 100.0 %
Test CRC AE836B83
Copy CRC AE836B83
Accurately ripped (confidence 6) [6E1E08B9]
Copy OK
Track 9
Filename D:\downloads\Giuseppe Verdi - Complete Operas [FLAC]\Giuseppe Verdi - Disc 57 - La Forza Del Destino (1987) - [FLAC]\09. Predica - Recitativo , Toh, Toh! Poffare Il Mondo! ... Lasciatelo Ch'ei Vada.wav
Peak level 87.4 %
Extraction speed 1.0 X
Track quality 100.0 %
Test CRC 693C9D6F
Copy CRC 693C9D6F
Accurately ripped (confidence 6) [AA016E27]
Copy OK
Track 10
Filename D:\downloads\Giuseppe Verdi - Complete Operas [FLAC]\Giuseppe Verdi - Disc 57 - La Forza Del Destino (1987) - [FLAC]\10. Rataplan , Rataplan.wav
Peak level 89.1 %
Extraction speed 1.0 X
Track quality 100.0 %
Test CRC 45725AD2
Copy CRC 45725AD2
Accurately ripped (confidence 6) [01112484]
Copy OK
Track 11
Filename D:\downloads\Giuseppe Verdi - Complete Operas [FLAC]\Giuseppe Verdi - Disc 57 - La Forza Del Destino (1987) - [FLAC]\11. Coro Ed Aria Buffa , Fate La Carita ... Che, Siete All'osteria.wav
Pre-gap length 0:00:07.33
Peak level 83.4 %
Extraction speed 0.6 X
Track quality 100.0 %
Test CRC 42EB9248
Copy CRC 42EB9248
Accurately ripped (confidence 6) [58AF6EF8]
Copy OK
Track 12
Filename D:\downloads\Giuseppe Verdi - Complete Operas [FLAC]\Giuseppe Verdi - Disc 57 - La Forza Del Destino (1987) - [FLAC]\12. Scena E Duetto , Auf! Pazienza Non V'ha Che Basti ... Giunge Qualcun... Aprite.wav
Peak level 40.8 %
Extraction speed 1.2 X
Track quality 100.0 %
Test CRC 08FA0EDC
Copy CRC 08FA0EDC
Accurately ripped (confidence 6) [68982C6A]
Copy OK
Track 13
Filename D:\downloads\Giuseppe Verdi - Complete Operas [FLAC]\Giuseppe Verdi - Disc 57 - La Forza Del Destino (1987) - [FLAC]\13. Scena E Duetto , Invano Alvaro ... Col Sangue Sol Cancellasi L'infamia.wav
Pre-gap length 0:00:00.16
Peak level 91.7 %
Extraction speed 0.7 X
Track quality 100.0 %
Test CRC 7D00D543
Copy CRC 7D00D543
Accurately ripped (confidence 5) [45488A0C]
Copy OK
Track 14
Filename D:\downloads\Giuseppe Verdi - Complete Operas [FLAC]\Giuseppe Verdi - Disc 57 - La Forza Del Destino (1987) - [FLAC]\14. Melodia , Pace, Pace, Mio Dio.wav
Peak level 87.3 %
Extraction speed 1.3 X
Track quality 100.0 %
Test CRC EFD4FADB
Copy CRC EFD4FADB
Accurately ripped (confidence 6) [B5092A74]
Copy OK
Track 15
Filename D:\downloads\Giuseppe Verdi - Complete Operas [FLAC]\Giuseppe Verdi - Disc 57 - La Forza Del Destino (1987) - [FLAC]\15. Scena E Terzetto , Io Muoio ... Confessione! ... Non Imprecare, Umiliati.wav
Pre-gap length 0:00:01.00
Peak level 91.2 %
Extraction speed 1.3 X
Track quality 100.0 %
Test CRC 9AD8DD01
Copy CRC 9AD8DD01
Accurately ripped (confidence 6) [77E9C46F]
Copy OK
All tracks accurately ripped
No errors occurred
End of status report
==== Log checksum 4CAA94BC0A89EC8CC9DB5AB6317D85DF3935E05797AF40660F126102FF74CC05 ====

Содержание индексной карты (.CUE)Содержание индексной карты (.CUE) CD 1

REM GENRE Classical
REM DATE 1987
REM DISCID E80A950E
REM COMMENT "ExactAudioCopy v1.0b1"
FILE "Giuseppe Verdi - Disc 55 - La Forza Del Destino (1987) - [FLAC]\01. Sinfonia Overture.wav" WAVE
TRACK 01 AUDIO
PREGAP 00:00:33
INDEX 01 00:00:00
TRACK 02 AUDIO
INDEX 00 07:50:50
FILE "Giuseppe Verdi - Disc 55 - La Forza Del Destino (1987) - [FLAC]\02. Introduzione - Scena Buona Notte, Mia Figlia.wav" WAVE
INDEX 01 00:00:00
FILE "Giuseppe Verdi - Disc 55 - La Forza Del Destino (1987) - [FLAC]\03. Recitativo Temea Restasse Qui Fino A Domani.wav" WAVE
TRACK 03 AUDIO
INDEX 01 00:00:00
FILE "Giuseppe Verdi - Disc 55 - La Forza Del Destino (1987) - [FLAC]\04. Romanza Me Peelegrina Ed Orfana.wav" WAVE
TRACK 04 AUDIO
INDEX 01 00:00:00
TRACK 05 AUDIO
INDEX 00 03:46:63
FILE "Giuseppe Verdi - Disc 55 - La Forza Del Destino (1987) - [FLAC]\05. Scena M'aiuti, Signorina.wav" WAVE
INDEX 01 00:00:00
FILE "Giuseppe Verdi - Disc 55 - La Forza Del Destino (1987) - [FLAC]\06. Duetto Ah, Per Sempre ... Seguirti Fino Agl'ultimi.wav" WAVE
TRACK 06 AUDIO
INDEX 01 00:00:00
FILE "Giuseppe Verdi - Disc 55 - La Forza Del Destino (1987) - [FLAC]\07. Scena - Finale E Tardi ... Vil Seduttor.wav" WAVE
TRACK 07 AUDIO
INDEX 01 00:00:00
TRACK 08 AUDIO
INDEX 00 02:12:15
FILE "Giuseppe Verdi - Disc 55 - La Forza Del Destino (1987) - [FLAC]\08. Coro - Ballabile Hola, Hola, Hola! Ben Giungi, O Mulattier.wav" WAVE
INDEX 01 00:00:00
FILE "Giuseppe Verdi - Disc 55 - La Forza Del Destino (1987) - [FLAC]\09. Scena - Recitativo La Cena E Pronta ... Viva La Guerra.wav" WAVE
TRACK 09 AUDIO
INDEX 01 00:00:00
FILE "Giuseppe Verdi - Disc 55 - La Forza Del Destino (1987) - [FLAC]\10. Canzone Al Suon Del Tamburro.wav" WAVE
TRACK 10 AUDIO
INDEX 01 00:00:00
FILE "Giuseppe Verdi - Disc 55 - La Forza Del Destino (1987) - [FLAC]\11. Preghiera Padre Eterno Signor ... Pieta Di Noi.wav" WAVE
TRACK 11 AUDIO
INDEX 01 00:00:00
FILE "Giuseppe Verdi - Disc 55 - La Forza Del Destino (1987) - [FLAC]\12. Scena - Recitativo Viva La Buona Compagnia ... Poich'imberbe E L'incognito.wav" WAVE
TRACK 12 AUDIO
INDEX 01 00:00:00
FILE "Giuseppe Verdi - Disc 55 - La Forza Del Destino (1987) - [FLAC]\13. Ballata Son Pereda, Son Ricco D'onore.wav" WAVE
TRACK 13 AUDIO
INDEX 01 00:00:00
FILE "Giuseppe Verdi - Disc 55 - La Forza Del Destino (1987) - [FLAC]\14. Scena, Coro Sta Bene.wav" WAVE
TRACK 14 AUDIO
INDEX 01 00:00:00

Содержание индексной карты (.CUE) CD 2

REM GENRE Classical
REM DATE 1987
REM DISCID AA0F570C
REM COMMENT "ExactAudioCopy v1.0b1"
FILE "Giuseppe Verdi - Disc 56 - La Forza Del Destino (1987) - [FLAC]\01. Son Giunta! Grazie, O Dio! ... Madre, Pietosa Vergine , Aria.wav" WAVE
TRACK 01 AUDIO
PREGAP 00:00:33
INDEX 01 00:00:00
TRACK 02 AUDIO
INDEX 00 06:55:30
FILE "Giuseppe Verdi - Disc 56 - La Forza Del Destino (1987) - [FLAC]\02. Scena , Chi Siete.wav" WAVE
INDEX 01 00:00:00
TRACK 03 AUDIO
INDEX 00 02:21:40
FILE "Giuseppe Verdi - Disc 56 - La Forza Del Destino (1987) - [FLAC]\03. Scena E Duetto , Chi Mi Cerca ... Infelice, Delusa, Reietta.wav" WAVE
INDEX 01 00:00:00
TRACK 04 AUDIO
INDEX 00 13:42:00
FILE "Giuseppe Verdi - Disc 56 - La Forza Del Destino (1987) - [FLAC]\04. Finale II , Il Santo Nome Di Dio Signore ... La Vergine Degli Angeli.wav" WAVE
INDEX 01 00:00:00
TRACK 05 AUDIO
INDEX 00 12:29:50
FILE "Giuseppe Verdi - Disc 56 - La Forza Del Destino (1987) - [FLAC]\05. Scena , Attenti Al Gioco.wav" WAVE
INDEX 01 00:00:00
FILE "Giuseppe Verdi - Disc 56 - La Forza Del Destino (1987) - [FLAC]\06. Scena , La Vita E Inferno All'infelice.wav" WAVE
TRACK 06 AUDIO
INDEX 01 00:00:00
FILE "Giuseppe Verdi - Disc 56 - La Forza Del Destino (1987) - [FLAC]\07. Romanza , Oh Tu Che In Sena Agli Angeli.wav" WAVE
TRACK 07 AUDIO
INDEX 01 00:00:00
TRACK 08 AUDIO
INDEX 00 02:46:12
FILE "Giuseppe Verdi - Disc 56 - La Forza Del Destino (1987) - [FLAC]\08. Scena E Duettino , Al Tradimento ... Amici In Vita, In Morte.wav" WAVE
INDEX 01 00:00:00
FILE "Giuseppe Verdi - Disc 56 - La Forza Del Destino (1987) - [FLAC]\09. Scena , All'armi ... Arde La Mischia ... Piano ... Qui Posi.wav" WAVE
TRACK 09 AUDIO
INDEX 01 00:00:00
FILE "Giuseppe Verdi - Disc 56 - La Forza Del Destino (1987) - [FLAC]\10. Duettino , Solenne In Quest'ora.wav" WAVE
TRACK 10 AUDIO
INDEX 01 00:00:00
FILE "Giuseppe Verdi - Disc 56 - La Forza Del Destino (1987) - [FLAC]\11. Scena , Morir! Tremenda Cosa!.wav" WAVE
TRACK 11 AUDIO
INDEX 01 00:00:00
FILE "Giuseppe Verdi - Disc 56 - La Forza Del Destino (1987) - [FLAC]\12. Urna Fatale Del Mio Destino .. Egli E Salvo! , Aria.wav" WAVE
TRACK 12 AUDIO
INDEX 01 00:00:00

Содержание индексной карты (.CUE) CD 3

REM GENRE Classical
REM DATE 1987
REM DISCID B50FFB0F
REM COMMENT "ExactAudioCopy v1.0b1"
FILE "Giuseppe Verdi - Disc 57 - La Forza Del Destino (1987) - [FLAC]\01. Ronda , Compagni, Sostiamo.wav" WAVE
TRACK 01 AUDIO
PREGAP 00:00:33
INDEX 01 00:00:00
TRACK 02 AUDIO
INDEX 00 02:41:70
FILE "Giuseppe Verdi - Disc 57 - La Forza Del Destino (1987) - [FLAC]\02. Scena E Duetto , Ne Gustare M'e Dato Un'ora Di Quiete ... Oh Tradimento.wav" WAVE
INDEX 01 00:00:00
FILE "Giuseppe Verdi - Disc 57 - La Forza Del Destino (1987) - [FLAC]\03. Lorche Pifferi E Tamburi , Coro.wav" WAVE
TRACK 03 AUDIO
INDEX 01 00:00:00
FILE "Giuseppe Verdi - Disc 57 - La Forza Del Destino (1987) - [FLAC]\04. Strofe , Venite All'indovina.wav" WAVE
TRACK 04 AUDIO
INDEX 01 00:00:00
FILE "Giuseppe Verdi - Disc 57 - La Forza Del Destino (1987) - [FLAC]\05. Scena , Qua, Vivandiere, Un Sorso.wav" WAVE
TRACK 05 AUDIO
INDEX 01 00:00:00
FILE "Giuseppe Verdi - Disc 57 - La Forza Del Destino (1987) - [FLAC]\06. Arietta - Coro , A Buon Mercato ... Pane, Pan Per Carita.wav" WAVE
TRACK 06 AUDIO
INDEX 01 00:00:00
FILE "Giuseppe Verdi - Disc 57 - La Forza Del Destino (1987) - [FLAC]\07. Che Vergogna! , Coro.wav" WAVE
TRACK 07 AUDIO
INDEX 01 00:00:00
FILE "Giuseppe Verdi - Disc 57 - La Forza Del Destino (1987) - [FLAC]\08. Coro - Tarantella , Nel Guerra, E La Follia.wav" WAVE
TRACK 08 AUDIO
INDEX 01 00:00:00
FILE "Giuseppe Verdi - Disc 57 - La Forza Del Destino (1987) - [FLAC]\09. Predica - Recitativo , Toh, Toh! Poffare Il Mondo! ... Lasciatelo Ch'ei Vada.wav" WAVE
TRACK 09 AUDIO
INDEX 01 00:00:00
FILE "Giuseppe Verdi - Disc 57 - La Forza Del Destino (1987) - [FLAC]\10. Rataplan , Rataplan.wav" WAVE
TRACK 10 AUDIO
INDEX 01 00:00:00
TRACK 11 AUDIO
INDEX 00 03:07:25
FILE "Giuseppe Verdi - Disc 57 - La Forza Del Destino (1987) - [FLAC]\11. Coro Ed Aria Buffa , Fate La Carita ... Che, Siete All'osteria.wav" WAVE
INDEX 01 00:00:00
FILE "Giuseppe Verdi - Disc 57 - La Forza Del Destino (1987) - [FLAC]\12. Scena E Duetto , Auf! Pazienza Non V'ha Che Basti ... Giunge Qualcun... Aprite.wav" WAVE
TRACK 12 AUDIO
INDEX 01 00:00:00
TRACK 13 AUDIO
INDEX 00 06:06:23
FILE "Giuseppe Verdi - Disc 57 - La Forza Del Destino (1987) - [FLAC]\13. Scena E Duetto , Invano Alvaro ... Col Sangue Sol Cancellasi L'infamia.wav" WAVE
INDEX 01 00:00:00
FILE "Giuseppe Verdi - Disc 57 - La Forza Del Destino (1987) - [FLAC]\14. Melodia , Pace, Pace, Mio Dio.wav" WAVE
TRACK 14 AUDIO
INDEX 01 00:00:00
TRACK 15 AUDIO
INDEX 00 06:14:25
FILE "Giuseppe Verdi - Disc 57 - La Forza Del Destino (1987) - [FLAC]\15. Scena E Terzetto , Io Muoio ... Confessione! ... Non Imprecare, Umiliati.wav" WAVE
INDEX 01 00:00:00

Треклист

Disc 1:
1. Overture
Act I:
2. Introduzione. Scena. Buona notte, mia figlia
3. Recitativo. Temea restasse qui fino a domani
4. Romanza. Me pellegrina ed orfana
5. Scena. M'aiuti, signorina
6. Duetto. Ah, per sempre, o mio bell'angiol... Seguirti fino agl'ultimi
7. Scena. Finale 1. È tardi... Vil seduttor
Act II:
8. Scene 1. Coro. Ballabile. Holà, holà, holà! Ben giungi, o mulattier
9 Scene 1. Scena. La cena è pronta / Recitativo. Viva la guerra
10. Scene 1. Canzone. Al suon del tamburo
11. Scene 1. Preghiera. Padre Eterno Signor... Pietà di noi
12. Scene 1. Scena. Viva la buona compagnia / Recitativo. Poich'imberbe è l'incognito
13. Scene 1. Ballada. son Pereda, son ricco d'onore
14. Scene 1. Scena, Coro e Ripresa della Danza. Sta bene
Disc 2:
1. Scene 2. Aria. Son giunta! grazie, o Dio!... Madre, pietosa Vergine
2. Scene 2. Scena. Chi siete?
3. Scene 2. Scena e Duetto. Chi mi cerca?... Infelice, delusa, reietta
4. Scene 2. Finale 2. Il santo nome di Dio Signore... La Vergine degli Angeli
Act III:
5. Scene 1. Scena. Attenti al gioco
6. Scene 1. La vita è inferno all'infelice
7. Scene 1. Romanza. Oh, tu che in seno agli angeli
8. Scene 1. Scena e Duettino. Al tradimento... Amici in vita, in morte
9. Scene 1. Scena. All'armi! / Scene 2. Battaglia. Arde la mischia! / Scena. Piano... qui posi
10. Scene 2. Duettino. Solenne in quest'ora
11. Scene 2. Scena. Morir! Tremenda cosa!
12. Scene 2. Aria. Urna fatale del mio destion... Egli è salvo! oh gioia immensa
Disc 3:
1. Scene 3. Ronda. Compagni, sostiamo
2. Scene 3. Scena e Duetto. Né gustare m'è dato un'ora di quiete... Oh tradimento!
3. Scene 3. Coro. Lorché pifferi e tamburi
4. Scene 3. Strofe. Venite all'indovina
5. Scene 3. Scena. Qua, vivandiere, un sorso
6. Scene 3. Arietta. A buon mercato / Coro. Pane, pan per carità
7. Scene 3. Che vergogna!
8. Scene 3. Coro. Tarantella. Nella guerra, è la follia
9. Scene 3. Predica. Toh, toh! Poffare il mondo! / Recitativo. Lasciatelo ch'ei vada
10. Scene 3. Rataplan. Rataplan
Act IV:
11. Scene 1. Coro ed Aria buffa. Fate la carità... Che? Siete all'osteria?
12. Scene 1. Scena e Duetto. Auf! Pazienza non v'ha che basti... Del mondo i disinganni / Scena.
13. Scene 1. Scena e Duetto. Invano, Alvaro, ti celasti al mondo... Col sangue sol cancellasi l'
14. Scene 2. Melodia. Pace, pace, mio Dio
15. Scene 2. Scena e Terzetto Finale. Io muoio... Confessione!... Non imprecare, umiliati



Показать сообщения:    

Текущее время: 05-Дек 17:35

Часовой пояс: UTC + 3


Вы не можете начинать темы
Вы не можете отвечать на сообщения
Вы не можете редактировать свои сообщения
Вы не можете удалять свои сообщения
Вы не можете голосовать в опросах
Вы не можете прикреплять файлы к сообщениям
Вы не можете скачивать файлы