(Classical, Violin, Piano, Clarinet) Galina Ustvolskaya / Галина Уствольская - Sonata, Trio, Duet {Patricia Kopatchinskaja / Патриция Копачинская, Markus Hinterhauser, Reto Bieri} - 2014 (ECM New Series 2329), FLAC (tracks+.cue), lossless


 

[Цитировать]

Patricia Kopatchinskaja, Markus Hinterhauser, Reto Bieri - Galina Ustvolskaya
Жанр: Classical, Violin, Piano, Clarinet
Страна-производитель диска: Германия
Год издания диска: 2014
Издатель (лейбл): ECM Records
Номер по каталогу: ECM 2329
Аудиокодек: FLAC
Тип рипа: tracks+.cue
Битрейт аудио: lossless
Продолжительность: 1:08:06
Источник (релизер): asnikkelbaard (what)
Наличие сканов в содержимом раздачи: digital booklet
Треклист:
Galina Ustvolskaya (1919-2006)
01. Sonata for violin and piano (1952) (22:35)
Trio for clarinet, violin and piano (1949)
02. I. Espressivo (6:07)
03. II. Dolce (3:56)
04. III. Energico (6:07)
05. Duet for violin and piano (1964) (29:21)
Исполнители:
Patricia Kopatchinskaja - violin
Markus Hinterhäuser - piano
Reto Bieri - clarinet
Recorded at Auditorio Radiotelevisione svizzera, Lugano in March 2013.

Лог создания рипа

X Lossless Decoder version 20141109 (148.0)
XLD extraction logfile from 2014-11-18 21:27:28 +0100
Patricia Kopatchinskaja/Markus Hinterha╠Иuser/Reto Bieri / Galina Ustvolskaya - Patricia Kopatchinskaja тАв Markus Hinterha╠Иuser тАв Reto Bieri [ECM New Series]
Used drive : TSSTcorp CDDVDW SE-S084D (revision TS01)
Media type : Pressed CD
Ripper mode : XLD Secure Ripper
Disable audio cache : OK for the drive with a cache less than 1375KiB
Make use of C2 pointers : NO
Read offset correction : 6
Max retry count : 100
Gap status : Analyzed, Appended (except HTOA)
TOC of the extracted CD
Track | Start | Length | Start sector | End sector
---------------------------------------------------------
1 | 00:00:00 | 22:34:44 | 0 | 101593
2 | 22:34:44 | 06:07:12 | 101594 | 129130
3 | 28:41:56 | 03:55:54 | 129131 | 146809
4 | 32:37:35 | 06:06:51 | 146810 | 174310
5 | 38:44:11 | 29:20:43 | 174311 | 306353
AccurateRip Summary
Disc not found in AccurateRip DB.
All Tracks
Album gain : 2.17 dB
Peak : 0.967834
Statistics
Read error : 0
Jitter error (maybe fixed) : 0
Retry sector count : 0
Damaged sector count : 0
Track 01
Filename : /Volumes/4TB 2/CD rips/Contemporary Composers/Galina Ustvolskaya/Galina Ustvolskaya - Patricia Kopatchinskaja тАв Markus Hinterha╠Иuser тАв Reto Bieri [ECM New Series]/01 Sonata for violin and piano [1952].flac
Pre-gap length : 00:02:00
Track gain : 3.40 dB
Peak : 0.950653
CRC32 hash (test run) : 6CED7354
CRC32 hash : 6CED7354
CRC32 hash (skip zero) : CF645FC0
AccurateRip v1 signature : 6EE89397
AccurateRip v2 signature : 3EC6F651
->Track not present in AccurateRip database.
Statistics
Read error : 0
Jitter error (maybe fixed) : 0
Retry sector count : 0
Damaged sector count : 0
Track 02
Filename : /Volumes/4TB 2/CD rips/Contemporary Composers/Galina Ustvolskaya/Galina Ustvolskaya - Patricia Kopatchinskaja тАв Markus Hinterha╠Иuser тАв Reto Bieri [ECM New Series]/02 Trio for clarinet, violin and piano [1949]я╝Ъ I. Espressivo.flac
Track gain : 0.66 dB
Peak : 0.646423
CRC32 hash (test run) : 74AFECC3
CRC32 hash : 74AFECC3
CRC32 hash (skip zero) : 9E31689A
AccurateRip v1 signature : AF1BB66F
AccurateRip v2 signature : 0A5EA289
->Track not present in AccurateRip database.
Statistics
Read error : 0
Jitter error (maybe fixed) : 0
Retry sector count : 0
Damaged sector count : 0
Track 03
Filename : /Volumes/4TB 2/CD rips/Contemporary Composers/Galina Ustvolskaya/Galina Ustvolskaya - Patricia Kopatchinskaja тАв Markus Hinterha╠Иuser тАв Reto Bieri [ECM New Series]/03 Trio for clarinet, violin and piano [1949]я╝Ъ II. Dolce.flac
Track gain : 12.98 dB
Peak : 0.108948
CRC32 hash (test run) : A43439DA
CRC32 hash : A43439DA
CRC32 hash (skip zero) : ED6DB1F7
AccurateRip v1 signature : 7114544A
AccurateRip v2 signature : C1A100D9
->Track not present in AccurateRip database.
Statistics
Read error : 0
Jitter error (maybe fixed) : 0
Retry sector count : 0
Damaged sector count : 0
Track 04
Filename : /Volumes/4TB 2/CD rips/Contemporary Composers/Galina Ustvolskaya/Galina Ustvolskaya - Patricia Kopatchinskaja тАв Markus Hinterha╠Иuser тАв Reto Bieri [ECM New Series]/04 Trio for clarinet, violin and piano [1949]я╝Ъ III. Energico.flac
Track gain : 1.08 dB
Peak : 0.901825
CRC32 hash (test run) : AF1B698B
CRC32 hash : AF1B698B
CRC32 hash (skip zero) : 2B741F29
AccurateRip v1 signature : 03B45844
AccurateRip v2 signature : FFE46A5B
->Track not present in AccurateRip database.
Statistics
Read error : 0
Jitter error (maybe fixed) : 0
Retry sector count : 0
Damaged sector count : 0
Track 05
Filename : /Volumes/4TB 2/CD rips/Contemporary Composers/Galina Ustvolskaya/Galina Ustvolskaya - Patricia Kopatchinskaja тАв Markus Hinterha╠Иuser тАв Reto Bieri [ECM New Series]/05 Duet for violin and piano [1964].flac
Track gain : 2.00 dB
Peak : 0.967834
CRC32 hash (test run) : 7B75A3A3
CRC32 hash : 7B75A3A3
CRC32 hash (skip zero) : F7B2DEFF
AccurateRip v1 signature : EFA01166
AccurateRip v2 signature : 355C6071
->Track not present in AccurateRip database.
Statistics
Read error : 0
Jitter error (maybe fixed) : 0
Retry sector count : 0
Damaged sector count : 0
No errors occurred
End of status report
-----BEGIN XLD SIGNATURE-----
2Hc.wUIVubqAVXbSWMoXnjpY6ROureirjZywT5FMY2G90pYI_rVKRviMldkUpkA_eUnnlY0YguCGt21y3LJHLijCApjkY8YIO11TLbS
-----END XLD SIGNATURE-----

Содержание индексной карты (.CUE)

TITLE "Galina Ustvolskaya"
PERFORMER "Patricia Kopatchinskaja, Markus Hinterhauser, Reto Bieri"
CATALOG 0028948108831
REM GENRE "Classical"
REM DATE "2014"
REM DISCID 430FF405
REM REPLAYGAIN_ALBUM_GAIN 2.17 dB
REM REPLAYGAIN_ALBUM_PEAK 0.967834
FILE "01 - Sonata for violin and piano (1952).flac" WAVE
TRACK 01 AUDIO
TITLE "Sonata for violin and piano (1952)"
ISRC DEB331332901
REM REPLAYGAIN_TRACK_GAIN 3.40 dB
REM REPLAYGAIN_TRACK_PEAK 0.950653
INDEX 01 00:00:00
FILE "02 - Trio for clarinet, violin and piano (1949)- I. Espressivo.flac" WAVE
TRACK 02 AUDIO
TITLE "Trio for clarinet, violin and piano (1949): I. Espressivo"
ISRC DEB331332902
REM REPLAYGAIN_TRACK_GAIN 0.66 dB
REM REPLAYGAIN_TRACK_PEAK 0.646423
INDEX 01 00:00:00
FILE "03 - Trio for clarinet, violin and piano (1949)- II. Dolce.flac" WAVE
TRACK 03 AUDIO
TITLE "Trio for clarinet, violin and piano (1949): II. Dolce"
ISRC DEB331332903
REM REPLAYGAIN_TRACK_GAIN 12.98 dB
REM REPLAYGAIN_TRACK_PEAK 0.108948
INDEX 01 00:00:00
FILE "04 - Trio for clarinet, violin and piano (1949)- III. Energico.flac" WAVE
TRACK 04 AUDIO
TITLE "Trio for clarinet, violin and piano (1949): III. Energico"
ISRC DEB331332904
REM REPLAYGAIN_TRACK_GAIN 1.08 dB
REM REPLAYGAIN_TRACK_PEAK 0.901825
INDEX 01 00:00:00
FILE "05 - Duet for violin and piano (1964).flac" WAVE
TRACK 05 AUDIO
TITLE "Duet for violin and piano (1964)"
ISRC DEB331332905
REM REPLAYGAIN_TRACK_GAIN 2.00 dB
REM REPLAYGAIN_TRACK_PEAK 0.967834
INDEX 01 00:00:00

Об альбоме (сборнике)

The unique expressiveness of the work of Galina Ustvolskaya (1919-2006) speaks to the listener with directness and nuanced layers of sound, the powerful, rhythmic stringency of the music testifying to the relentlessness of her vision. Fiercely independent, Ustvolskaya maintained that her music sounded like the work of no other composer, living or dead, and put herself outside all stylistic “schools”. Her work, said Viktor Suslin, has the "narrowness of a laser beam capable of piercing metal.” Its sense of concentration is sometimes ferocious. Entering this sound-world calls for a special kind of commitment and intensity. Patricia Kopatchinskaja (recently described by Strings magazine as “the most exciting violinist in the world”) and Markus Hinterhäuser play the Sonata (1952) and the Duet (1964) for violin and piano, and together with Reto Bieri, the Trio (1949) for clarinet, violin and piano, all recorded in the acoustically superb studio in Lugano which has become one of ECM’s primary locations.



Показать сообщения:    

Текущее время: 08-Дек 23:12

Часовой пояс: UTC + 3


Вы не можете начинать темы
Вы не можете отвечать на сообщения
Вы не можете редактировать свои сообщения
Вы не можете удалять свои сообщения
Вы не можете голосовать в опросах
Вы не можете прикреплять файлы к сообщениям
Вы не можете скачивать файлы