Убийца / Nie yin niang (Хоу Сяосянь / Hou Hsiao-hsien) [2015, Тайвань, Китай, Гонконг, Франция, боевик, драма, WEB-DL 1080p] + Sub Rus


 

[Цитировать]

Убийца / Nie yin niang
Страна: Тайвань, Китай, Гонконг, Франция
Жанр: боевик, драма
Год выпуска: 2015
Продолжительность: 01:45:25
Перевод: Субтитры Skuf
Cубтитры: русские
Оригинальная аудиодорожка: Китайская
Режиссер: Хоу Сяосянь / Hou Hsiao-hsien
В ролях: Шу Ци, Чан Чэнь, Сатоси Цумабуки, Шао-Хуань Чанг, Никки Ши, Этан Жуань, Фэнг Мей, Дахун Ни, Фанг-Ю Шей, Ших Чун
Описание: Древний Китай. Правление династии Танг. Главная героиня - одна из лучших наемных убийц тех времен. Она не знает жалости и пощады. Но однажды она влюбляется в молодого человека, которого ей приказали убить...
Трейлер
Доп. информация:

Каннский кинофестиваль 2015
Победитель в номинации "Лучшая режиссура"
Номинант в основном конкурсе на Золотую пальмовую ветвь

Сэмпл: http://www.mediafire.com/watch/nafwpii4wgrkiwj/The.Assassin.2015.1080p.WEB-DL.x264.AAC-SeeHD.mkv
Качество видео: WEB-DL
Формат видео: MKV
Присутствуют китайские не отключаемые субтитры.
Видео: H.264/MPEG-4 1840 х 1040 (16:9) 6000 Кбит/сек 24,000 кадра/сек
Аудио: AAC 2 канала 44,1 КГц Переменный 126 Кбит/сек
Формат субтитров: softsub (SRT)

MediaInfo

Общее
Полное имя : D:\The Assassin 2015 1080p WEB-DL x264 AAC-SeeHD\The.Assassin.2015.1080p.WEB-DL.x264.AAC-SeeHD.mp4
Формат : MPEG-4
Профиль формата : Base Media
Идентификатор кодека : isom
Размер файла : 4,49 Гбайт
Продолжительность : 1 ч. 46 м.
Режим общего битрейта : Переменный
Общий поток : 6045 Кбит/сек
Дата кодирования : UTC 2015-09-30 12:28:50
Дата пометки : UTC 2015-09-30 12:28:50
Авторское право : PPTV-2.4.0.143924(20,20)[1]
Видео
Идентификатор : 1
Формат : AVC
Формат/Информация : Advanced Video Codec
Профиль формата : High@L4
Параметр CABAC формата : Да
Параметр ReFrames формата : 4 кадра
Идентификатор кодека : avc1
Идентификатор кодека/Информация : Advanced Video Coding
Продолжительность : 1 ч. 46 м.
Битрейт : 6000 Кбит/сек
Максимальный битрейт : 16,1 Мбит/сек
Ширина : 1840 пикселей
Высота : 1040 пикселей
Соотношение сторон : 16:9
Режим частоты кадров : Постоянный
Частота кадров : 24,000 кадра/сек
Цветовое пространство : YUV
Субдискретизация насыщенности : 4:2:0
Битовая глубина : 8 бит
Тип развёртки : Прогрессивная
Бит/(Пиксели*Кадры) : 0.131
Размер потока : 4,40 Гбайт (98%)
Заголовок : VideoByEZMediaEditor
Библиотека кодирования : x264()-core 129 - H.264/MPEG-4
Настройки программы : cabac=1 / ref=4 / deblock=1:0:0 / analyse=0x3:0x133 / me=umh / subme=9 / psy=1 / psy_rd=0.00:0.00 / mixed_ref=1 / me_range=24 / chroma_me=1 / trellis=2 / 8x8dct=1 / cqm=0 / deadzone=21,11 / fast_pskip=0 / chroma_qp_offset=0 / threads=40 / lookahead_threads=6 / sliced_threads=0 / nr=0 / decimate=1 / interlaced=0 / bluray_compat=0 / constrained_intra=0 / bframes=4 / b_pyramid=2 / b_adapt=0 / b_bias=0 / direct=3 / weightb=1 / open_gop=0 / weightp=2 / keyint=240 / keyint_min=24 / scenecut=40 / intra_refresh=0 / rc_lookahead=60 / rc=abr / mbtree=1 / bitrate=6000 / ratetol=1.0 / qcomp=0.60 / qpmin=0 / qpmax=69 / qpstep=4 / vbv_maxrate=12000 / vbv_bufsize=6000 / nal_hrd=none / ip_ratio=1.40 / aq=1:1.00
Дата кодирования : UTC 2015-09-30 12:28:50
Дата пометки : UTC 2015-09-30 12:29:56
Аудио
Идентификатор : 2
Формат : AAC
Формат/Информация : Advanced Audio Codec
Профиль формата : LC
Идентификатор кодека : 40
Продолжительность : 1 ч. 46 м.
Вид битрейта : Переменный
Битрейт : 126 Кбит/сек
Максимальный битрейт : 134 Кбит/сек
Каналы : 2 канала
Расположение каналов : Front: L R
Частота : 44,1 КГц
Метод сжатия : С потерями
Размер потока : 95,6 Мбайт (2%)
Заголовок : Audio1-und
Дата кодирования : UTC 2015-09-30 12:29:54
Дата пометки : UTC 2015-09-30 12:29:56

Скриншот c названием фильма

Скриншоты




Показать сообщения:    

Текущее время: 06-Дек 15:15

Часовой пояс: UTC + 3


Вы не можете начинать темы
Вы не можете отвечать на сообщения
Вы не можете редактировать свои сообщения
Вы не можете удалять свои сообщения
Вы не можете голосовать в опросах
Вы не можете прикреплять файлы к сообщениям
Вы не можете скачивать файлы