Мой личный штат Айдахо / My Own Private Idaho (Гас Ван Сент / Gus Van Sant) [1991, США, драма, BDRip 720p] [Criterion Collection] DVO + AVO (Кузнецов) + Sub (Rus, Eng) + Original Eng


 

[Цитировать]

Мой личный штат Айдахо / My Own Private Idaho
Страна: США
Жанр: драма
Год выпуска: 1991
Продолжительность: 01:44:10
Перевод: Профессиональный (двухголосый закадровый) Союз-Видео
Перевод: Авторский (одноголосый закадровый) Сергей Кузнецов
Cубтитры: русские, английские
Оригинальная аудиодорожка: английский-Режиссер: Гас Ван Сент / Gus Van Sant
В ролях: Киану Ривз, Ривер Феникс, Джеймс Руссо, Уильям Ричерт, Родни Харви, Кьяра Казелли, Фли, Грэйс Забриски, Том Троуп, Майкл Паркер, Удо Кир, Роберт Ли Питчлинн, Мики Коттрелл, Скотт Патрик Грин, Стивен Кларк Пачоза, Эрик Халл, Джим Кэвизел, Роберт Эгон
Описание: В центре этого «роуд-муви» два юных представителя диаметрально противоположных социальных слоев. Главный герой, Майк, не знает толком, кто его отец, не знает, где сейчас его мать. Он родился маргиналом и живет как маргинал. Кроме того, он болен нарколепсией. Друг Майка, Скотт, сын богатых родителей и его образ жизни это способ досадить отцу. Они живут на улицах Портленда, употребляют наркотики, зарабатывая тем, что продают себя как женщинам, так и мужчинам...
IMDb || КиноПоиск-Тип релиза: BDRip 720p [VietHD]
Контейнер: MKV
Видео: x264/AVC, 1280x690 at 23.976 fps, 9888 kbps
Аудио#1: Russian: 48 kHz, AC3, 5.1 ch, 448 kbps
Аудио#2: Russian: 48 kHz, AC3, 2.0 ch, 192 kbps
Аудио#3: English: 48 kHz, AC3, 5.1 ch, 640 kbps
Формат субтитров: softsub (SRT)
Сэмпл

Дополнительно

Дорожки с DVD9. Подогнаны без перекодирования.

MediaInfo

General
Unique ID : 227610896163821718237736143875174742494 (0xAB3C43996015A03680E85DFDB0B2B9DE)
Complete name : My Own Private Idaho.1991.Criterion.720p.x264-VietHD. rutracker.mkv
Format : Matroska
Format version : Version 2
File size : 8.28 GiB
Duration : 1h 44mn
Overall bit rate : 11.4 Mbps
Movie name : Release for RuTracker
Writing application : mkvmerge v5.0.1 ('Es ist Sommer') built on Nov 6 2011 16:23:40
Writing library : libebml v1.2.2 + libmatroska v1.3.0
Video
ID : 1
Format : AVC
Format/Info : Advanced Video Codec
Format profile : High@L4.1
Format settings, CABAC : Yes
Format settings, ReFrames : 9 frames
Codec ID : V_MPEG4/ISO/AVC
Duration : 1h 44mn
Bit rate : 9 876 Kbps
Width : 1 280 pixels
Height : 690 pixels
Display aspect ratio : 1.85:1
Frame rate mode : Constant
Frame rate : 23.976 fps
Color space : YUV
Chroma subsampling : 4:2:0
Bit depth : 8 bits
Scan type : Progressive
Bits/(Pixel*Frame) : 0.466
Stream size : 7.19 GiB (87%)
Title : My Own Private Idaho.1991.Criterion.720p.x264-VietHD. rutracker
Writing library : x264 core 146 r2538kMod 121396c
Encoding settings : cabac=1 / ref=9 / deblock=1:1:-3 / analyse=0x3:0x133 / me=umh / subme=10 / psy=1 / fade_compensate=0.00 / psy_rd=1.20:0.00 / mixed_ref=1 / me_range=24 / chroma_me=1 / trellis=2 / 8x8dct=1 / cqm=0 / deadzone=21,11 / fast_pskip=0 / chroma_qp_offset=-2 / threads=12 / lookahead_threads=2 / sliced_threads=0 / nr=0 / decimate=0 / interlaced=0 / bluray_compat=0 / constrained_intra=0 / fgo=0 / bframes=9 / b_pyramid=2 / b_adapt=2 / b_bias=0 / direct=3 / weightb=1 / open_gop=0 / weightp=2 / keyint=250 / keyint_min=23 / scenecut=40 / intra_refresh=0 / rc_lookahead=60 / rc=crf / mbtree=0 / crf=20.3000 / qcomp=0.70 / qpmin=0 / qpmax=69 / qpstep=4 / vbv_maxrate=62500 / vbv_bufsize=78125 / crf_max=0.0 / nal_hrd=none / filler=0 / ip_ratio=1.40 / pb_ratio=1.30 / aq=3:0.80
Language : English
Default : Yes
Forced : No
Matrix coefficients : BT.709
Audio #1
ID : 2
Format : AC-3
Format/Info : Audio Coding 3
Mode extension : CM (complete main)
Format settings, Endianness : Big
Codec ID : A_AC3
Duration : 1h 44mn
Bit rate mode : Constant
Bit rate : 448 Kbps
Channel(s) : 6 channels
Channel positions : Front: L C R, Side: L R, LFE
Sampling rate : 48.0 KHz
Bit depth : 16 bits
Compression mode : Lossy
Stream size : 334 MiB (4%)
Title : Союз-Видео
Language : Russian
Default : Yes
Forced : No
Audio #2
ID : 3
Format : AC-3
Format/Info : Audio Coding 3
Mode extension : CM (complete main)
Format settings, Endianness : Big
Codec ID : A_AC3
Duration : 1h 44mn
Bit rate mode : Constant
Bit rate : 192 Kbps
Channel(s) : 2 channels
Channel positions : Front: L R
Sampling rate : 48.0 KHz
Bit depth : 16 bits
Compression mode : Lossy
Stream size : 143 MiB (2%)
Title : Сергей Кузнецов
Language : Russian
Default : No
Forced : No
Audio #3
ID : 4
Format : AC-3
Format/Info : Audio Coding 3
Mode extension : CM (complete main)
Format settings, Endianness : Big
Codec ID : A_AC3
Duration : 1h 44mn
Bit rate mode : Constant
Bit rate : 640 Kbps
Channel(s) : 6 channels
Channel positions : Front: L C R, Side: L R, LFE
Sampling rate : 48.0 KHz
Bit depth : 16 bits
Compression mode : Lossy
Stream size : 477 MiB (6%)
Language : English
Default : No
Forced : No
Text #1
ID : 5
Format : UTF-8
Codec ID : S_TEXT/UTF8
Codec ID/Info : UTF-8 Plain Text
Language : Russian
Default : No
Forced : No
Text #2
ID : 6
Format : UTF-8
Codec ID : S_TEXT/UTF8
Codec ID/Info : UTF-8 Plain Text
Language : English
Default : No
Forced : No
Menu
00:00:00.000 : en:00:00:00.000
00:05:38.797 : en:00:05:38.797
00:11:31.441 : en:00:11:31.441
00:17:30.800 : en:00:17:30.800
00:21:18.527 : en:00:21:18.527
00:26:44.019 : en:00:26:44.019
00:37:31.624 : en:00:37:31.624
00:44:24.370 : en:00:44:24.370
00:50:46.085 : en:00:50:46.085
00:56:30.304 : en:00:56:30.304
01:04:40.376 : en:01:04:40.376
01:11:24.113 : en:01:11:24.113
01:19:31.308 : en:01:19:31.308
01:24:46.873 : en:01:24:46.873
01:27:46.553 : en:01:27:46.553
01:31:25.814 : en:01:31:25.814
01:35:40.652 : en:01:35:40.652



Показать сообщения:    

Текущее время: 05-Дек 01:26

Часовой пояс: UTC + 3


Вы не можете начинать темы
Вы не можете отвечать на сообщения
Вы не можете редактировать свои сообщения
Вы не можете удалять свои сообщения
Вы не можете голосовать в опросах
Вы не можете прикреплять файлы к сообщениям
Вы не можете скачивать файлы