Капитан Конан / Capitaine Conan / Captain Conan (Бертран Тавернье / Bertrand Tavernier) [1996, Франция, военный, драма, исторический, DVDRip] MVO


Статистика раздачи [Обновить пиров]
Размер:  1.46 GB   |    Зарегистрирован:  8 месяцев 20 дней   |    Скачан:  0 раз

Полного источника не было: Никогда

 
   
 
 
 

[Цитировать]

Капитан Конан / Capitaine Conan / Captain Conan
Год выпуска: 1996
Страна: Франция
Жанр: военный, драма, исторический
Продолжительность: 02:06:58.839 (190471 frames)
Перевод: Профессиональный (многоголосый закадровый) - Premier Digital
Оригинальная аудиодорожка: нет
Русские субтитры: нет
Режиссер: Бертран Тавернье / Bertrand Tavernier
В ролях: Филипп Торретон, Самюэль Ле Бьян, Бернар Ле Кок, Кэтрин Рич, Франсуа Берлеан, Клод Рич, Андре Фалькон, Клод Броссе, Сесиль Вассор, Франсуа Леванталь, Фредерик Пьеро, Лорен Шиллинг, Тонио Десканвель, Эрик Савин, Оливье Лусто, Жан-Мари Хуан, Лоран Бато, Кристоф Оден, Кристоф Ван де Вельд, Фредерик Дифенталь, Дэниэл Лангле, Хьюберт Равель, Юджин Кристеа, Адриан Пинтеа, Ольга Тудораке, Мэриэн Стэн, Дэвид Брекот
Описание: В ноябре 1918 года, незадолго до окончания Первой Мировой войны, капитан Конан (Филипп Торретон) и его люди ожидают приказа в Бухаресте. Конан считает себя не солдатом, но воином: солдат воюет, воин – не боящийся рисковать, смотреть смерти в лицо и проливать кровь – побеждает. Конан убежден, что именно кровожадная доблесть его самого и его людей выиграли войну с Германией. Однако, в то время как мрачная натура Конана во время войны была даром Божьим, в мирное время она доставляет только неприятности, особенно когда капитан со своими друзьями Норбером (Самуэль Ле Биан) и Де Скев (Бернар ЛеКок) посланы патрулировать ныне спокойную границу. Конан и его бойцы слишком привыкли к бойне, чтобы так просто расстаться с ее смертельными объятьями, потому они начинают устраивать вылазки в Балканские горы. Ситуация достигает пика, когда по ходу ограбления-атаки на ночной клуб происходит убийство двух женщин; Конан и его люди приведены к военному трибуналу, что рождает ссору между капитаном и его близким другом Норбером, уважающим Конана, но не разделяющего его безоглядного энтузиазма воина....
Качество: DVDRip
Формат: AVI
Видео кодек: XviD
Аудио кодек: МР3
Видео: 704x304 (2.32:1), 25 fps, XviD build 73 ~1506 kbps avg, 0.28 bit/pixel
Аудио: 48 kHz, MPEG Layer 3, 2 ch, ~128.00 kbps avg

Медиаинфо

General
Complete name : F:\kapitan_konan_1.46_[torrents.ru]_by_filolya.avi
Format : AVI
Format/Info : Audio Video Interleave
File size : 1.46 GiB
Duration : 2h 6mn
Overall bit rate : 1 644 Kbps
Writing application : VirtualDubMod 1.5.10.3 | www.virtualdub-fr.org || (build 2550/release)
Writing library : VirtualDubMod build 2550/release
Video
ID : 0
Format : MPEG-4 Visual
Format profile : Advanced Simple@L5
Format settings, BVOP : 1
Format settings, QPel : No
Format settings, GMC : No warppoints
Format settings, Matrix : Custom
Codec ID : XVID
Codec ID/Hint : XviD
Duration : 2h 6mn
Bit rate : 1 506 Kbps
Width : 704 pixels
Height : 304 pixels
Display aspect ratio : 2.35:1
Frame rate : 25.000 fps
Color space : YUV
Chroma subsampling : 4:2:0
Bit depth : 8 bits
Scan type : Progressive
Compression mode : Lossy
Bits/(Pixel*Frame) : 0.282
Stream size : 1.34 GiB (92%)
Writing library : XviD 73
Audio
ID : 1
Format : MPEG Audio
Format version : Version 1
Format profile : Layer 3
Codec ID : 55
Codec ID/Hint : MP3
Duration : 2h 6mn
Bit rate mode : Constant
Bit rate : 128 Kbps
Channel(s) : 2 channels
Sampling rate : 48.0 KHz
Compression mode : Lossy
Stream size : 116 MiB (8%)
Alignment : Aligned on interleaves
Interleave, duration : 40 ms (1.00 video frame)
Interleave, preload duration : 504 ms
Writing library : LAME3.99r
Encoding settings : -m s -V 4 -q 2 -lowpass 17 -b 128

Рип переделан, торрент перезалит. 20.03.2016.
[teatrix.ru].t22479.torrent 
Торрент: Зарегистрирован [ 2016-03-21 00:03 ] · E055E07BADB7161AA59F5156DB9A05F4AB9DCF6F

Скачать .torrent

Скачать

15 KB

Статус: проверено
Скачан: 0 раз
Размер: 1.46 GB
terms.php



Быстрый ответ

Имя:

      
Для отправки сообщений необходимо включить JavaScript
Показать сообщения:    

Текущее время: 10-Дек 21:33

Часовой пояс: UTC + 3


Вы можете начинать темы
Вы можете отвечать на сообщения
Вы не можете редактировать свои сообщения
Вы не можете удалять свои сообщения
Вы не можете голосовать в опросах
Вы не можете прикреплять файлы к сообщениям
Вы можете скачивать файлы