Udaya - Cardio Blast with Caley Alyssa [2015, H.264, WEBRip, ENG] (Видеоурок)


Статистика раздачи [Обновить пиров]
Размер:  519 MB   |    Зарегистрирован:  8 месяцев 13 дней   |    Скачан:  0 раз

Полного источника не было: Никогда

 
   
 
 
 

[Цитировать]

Cardio Blast with Caley Alyssa- -Производитель: Udaya
Тип раздаваемого материала: Видеоурок
Автор: Caley Alyssa
Продолжительность: 00:43:33
Сайт производителя: www.udaya.com
Год выпуска: 2015
Язык: Английский
Перевод: Отсутствует
Описание: В этом 40-минутный теплового потенциала последовательности будут чередоваться между верхней и нижней части тела позе разработан для того, чтобы обеспечить вам хорошо закругленный практика в течение короткого промежутка времени. Вам также будет работать и пользоваться несколько сладкий простирается и долго сохраняет.-In this 40 minute heat building sequence you will alternate between upper body and lower body postures designed to give you a well rounded practice in a short amount of time. You will also work the core and enjoy a few sweet stretches and long holds.--

Media Info

General
Complete name :Caley Alyssa Yoga - Cardio Blast 40 min.mp4
Format : MPEG-4
Format profile : Base Media / Version 2
Codec ID : mp42
File size : 519 MiB
Duration : 43mn 33s
Overall bit rate mode : Variable
Overall bit rate : 1 664 Kbps
Encoded date : UTC 2036-02-06 06:28:16
Tagged date : UTC 2036-02-06 06:28:16
Writing application : HandBrake 0.10.2 2015060900
Video
ID : 1
Format : AVC
Format/Info : Advanced Video Codec
Format profile : Main@L4.0
Format settings, CABAC : Yes
Format settings, ReFrames : 4 frames
Codec ID : avc1
Codec ID/Info : Advanced Video Coding
Duration : 43mn 33s
Bit rate : 1 497 Kbps
Width : 1 280 pixels
Height : 720 pixels
Display aspect ratio : 16:9
Frame rate mode : Variable
Frame rate : 23.976 fps
Minimum frame rate : 23.974 fps
Maximum frame rate : 23.981 fps
Color space : YUV
Chroma subsampling : 4:2:0
Bit depth : 8 bits
Scan type : Progressive
Bits/(Pixel*Frame) : 0.068
Stream size : 467 MiB (90%)
Writing library : x264 core 142 r2479 dd79a61
Encoded date : UTC 2036-02-06 06:28:16
Tagged date : UTC 2036-02-06 06:28:16
Color primaries : BT.709-5, BT.1361, IEC 61966-2-4, SMPTE RP177
Transfer characteristics : BT.709-5, BT.1361
Matrix coefficients : BT.709-5, BT.1361, IEC 61966-2-4 709, SMPTE RP177
Audio
ID : 2
Format : AAC
Format/Info : Advanced Audio Codec
Format profile : LC
Codec ID : 40
Duration : 43mn 33s
Bit rate mode : Variable
Bit rate : 160 Kbps
Channel(s) : 2 channels
Channel positions : Front: L R
Sampling rate : 48.0 KHz
Compression mode : Lossy
Stream size : 49.9 MiB (10%)
Title : Stereo
Encoded date : UTC 2036-02-06 06:28:16
Tagged date : UTC 2036-02-06 06:28:16
Формат: MP4
Видео кодек: H.264
Аудио кодек: AAC
Видео: AVC, 1280x720, 16:9, 25.000 fps, ~ 1818 Kbps
Аудио: AAC, 48.0 KHz, ~ 130.0 Kbps, 2 channels

Скриншоты

[teatrix.ru].t22481.torrent 
Торрент: Зарегистрирован [ 2016-03-21 00:01 ] · 5234AC839DBE7C7A9533BDA9A289BB36244A845A

Скачать .torrent

Скачать

41 KB

Статус: проверено
Скачан: 0 раз
Размер: 519 MB
terms.php



Быстрый ответ

Имя:

      
Для отправки сообщений необходимо включить JavaScript
Показать сообщения:    

Текущее время: 03-Дек 22:46

Часовой пояс: UTC + 3


Вы можете начинать темы
Вы можете отвечать на сообщения
Вы не можете редактировать свои сообщения
Вы не можете удалять свои сообщения
Вы не можете голосовать в опросах
Вы не можете прикреплять файлы к сообщениям
Вы можете скачивать файлы