(Classical) Сергей Прокофьев - Сонаты для скрипки и фортепиано - Vadim Gluzman, Angela Yoffe - 2013, FLAC (image+.cue) lossless


 

[Цитировать]

Сергей Прокофьев - Сонаты для скрипки и фортепиано - Vadim Gluzman, Angela Yoffe
Жанр: Classical
Страна-производитель диска: Sweden
Год издания диска: 2013
Издатель (лейбл): BIS
Номер по каталогу: BIS-SACD-2032
Дата записи: 2012
Аудиокодек: FLAC
Тип рипа: image+.cue
Битрейт аудио: lossless
Продолжительность: 63:02
Источник: собственный рип
Наличие сканов в содержимом раздачи: да
Треклист:
Сергей Прокофьев
[1]-[4] Соната для скрипки и фортепиано №1 фа минор, Op. 80 (1938–46)
[5]-[8] Соната для скрипки и фортепиано №2 ре мажор, Op. 94 bis (1943)
[9]-[11] Три пьесы из балета "Ромео и Джульетта", Op. 64 (1935–36)
Arrangement for violin and piano by D. Grjunes
Исполнители:
Vadim Gluzman violin
Angela Yoffe piano

Лог создания рипа

Exact Audio Copy V1.0 beta 3 from 29. August 2011
EAC extraction logfile from 11. March 2015, 1:47
Vadim Gluzman, Angela Yoffe / Prokofiev - Violin Sonatas
Used drive : HL-DT-STDVDRAM GU70N Adapter: 0 ID: 0
Read mode : Secure
Utilize accurate stream : Yes
Defeat audio cache : Yes
Make use of C2 pointers : No
Read offset correction : 48
Overread into Lead-In and Lead-Out : No
Fill up missing offset samples with silence : Yes
Delete leading and trailing silent blocks : No
Null samples used in CRC calculations : Yes
Used interface : Native Win32 interface for Win NT & 2000
Used output format : User Defined Encoder
Selected bitrate : 128 kBit/s
Quality : High
Add ID3 tag : No
Command line compressor : C:\Program Files (x86)\Exact Audio Copy\Flac\flac.exe
Additional command line options : -V -8 -T "Date=%year%" -T "Genre=%genre%" %source%
TOC of the extracted CD
Track | Start | Length | Start sector | End sector
---------------------------------------------------------
1 | 0:00.00 | 7:30.71 | 0 | 33820
2 | 7:30.71 | 7:29.27 | 33821 | 67522
3 | 15:00.23 | 7:25.42 | 67523 | 100939
4 | 22:25.65 | 7:57.73 | 100940 | 136787
5 | 30:23.63 | 7:46.55 | 136788 | 171792
6 | 38:10.43 | 4:55.36 | 171793 | 193953
7 | 43:06.04 | 3:37.39 | 193954 | 210267
8 | 46:43.43 | 7:40.06 | 210268 | 244773
9 | 54:23.49 | 3:46.22 | 244774 | 261745
10 | 58:09.71 | 2:25.36 | 261746 | 272656
11 | 60:35.32 | 2:27.28 | 272657 | 283709
Range status and errors
Selected range
Filename C:\temp\BIS-SACD-2032 - Prokofiev - Violin Sonatas\Prokofiev - Violin Sonatas.wav
Peak level 93.0 %
Extraction speed 2.2 X
Range quality 99.9 %
Test CRC 519449D1
Copy CRC 519449D1
Copy OK
No errors occurred
AccurateRip summary
Track 1 accurately ripped (confidence 3) [B88D01FD] (AR v2)
Track 2 accurately ripped (confidence 3) [B3B6D76A] (AR v2)
Track 3 accurately ripped (confidence 3) [026104F0] (AR v2)
Track 4 accurately ripped (confidence 3) [57BA5E94] (AR v2)
Track 5 accurately ripped (confidence 3) [BBB9FB6A] (AR v2)
Track 6 accurately ripped (confidence 3) [288D4CEE] (AR v2)
Track 7 accurately ripped (confidence 3) [A3F78B41] (AR v2)
Track 8 accurately ripped (confidence 3) [5B344C9C] (AR v2)
Track 9 accurately ripped (confidence 3) [08D46C91] (AR v2)
Track 10 accurately ripped (confidence 3) [EA2F7FEF] (AR v2)
Track 11 accurately ripped (confidence 3) [CC3EA15D] (AR v2)
All tracks accurately ripped
End of status report
==== Log checksum 5764400ABB4374B7C915E0399A0911D3E46221023CE32E61B9EBD96B6FC56109 ====



Показать сообщения:    

Текущее время: 06-Дек 05:35

Часовой пояс: UTC + 3


Вы не можете начинать темы
Вы не можете отвечать на сообщения
Вы не можете редактировать свои сообщения
Вы не можете удалять свои сообщения
Вы не можете голосовать в опросах
Вы не можете прикреплять файлы к сообщениям
Вы не можете скачивать файлы