[TR24][OF] Andrea Bocelli - The Complete Pop Albums (1994-2013)/2015 (Classic, Pop, Vocal)


Статистика раздачи [Обновить пиров]
Размер:  18.13 GB   |    Зарегистрирован:  8 месяцев 15 дней   |    Скачан:  1 раз

Полного источника не было: 1 месяц 15 дней

 
   
 
 
 

[Цитировать]

Andrea Bocelli- The Complete Pop Albums (1994-2013) (2015) Формат/Источник записи: [TR24][OF]
Год издания/Переиздания: 1994-2013/2015
Жанр: Pop, Vocal, Classic
Издатель (лейбл): Verve Records
Сканы: нет
Тип рипа: tracks
Цифровой формат: PCM (*.flac) 96khz/24bit
Количество каналов: 2.0
Источник:
Релизёр: -

The Complete Pop AlbumsDisc 01 - Il Mare Calmo della Sera (1994)

Il Mare Calmo della Sera (53:21)-01. Il Mare Calmo Della Sera (4:34)
02. Rapsodia (5:29)
03. Ave Maria No Morro (4:21)
04. Vivere (feat. Gerardina Trovato) (4:01)
05. La Luna Che Non C'e (4:30)
06. Caruso (5:17)
07. Miserere (4:13)
08. Panis Angelicus (3:52)
09. Ah, La Paterna Mano (from 'Macbeth') (4:03)
10. E Lucean Le Stelle (from 'Tosca') (3:14)
11. La Fleur Que Tu M'Avais Jetee (from 'Carmen') (4:24)
12. L'Anima Ho Stanca (from 'Adriana Lecouvreur') (2:22)
13. Sogno (3:00)
-

Official DR value: DR8

foobar2000 1.2.2 / Dynamic Range Meter 1.1.1
log date: 2015-10-19 15:51:05
--------------------------------------------------------------------------------
Analyzed: Andrea Bocelli / The Complete Pop Albums: Il Mare Calmo della Sera
--------------------------------------------------------------------------------
DR Peak RMS Duration Track
--------------------------------------------------------------------------------
DR8 0.00 dB -10.69 dB 4:34 ?-Il mare calmo della sera
DR10 0.00 dB -13.02 dB 5:29 ?-Rapsodia
DR8 0.00 dB -10.58 dB 4:21 ?-Ave maria no morro
DR8 0.00 dB -10.94 dB 4:01 ?-Vivere (feat. Gerardina Trovato)
DR8 0.00 dB -11.03 dB 4:30 ?-La luna che non c'e
DR8 0.00 dB -11.92 dB 5:17 ?-Caruso
DR8 0.00 dB -11.44 dB 4:13 ?-Miserere
DR8 0.00 dB -11.84 dB 3:52 ?-Panis Angelicus
DR9 0.00 dB -12.12 dB 4:03 ?-Ah, la paterna mano (from MacBeth)
DR9 0.00 dB -13.41 dB 3:14 ?-E lucean le stelle (from Tosca)
DR8 0.00 dB -11.97 dB 4:24 ?-La fleur que tu m'avais jetee (from Carmen)
DR8 0.00 dB -11.14 dB 2:22 ?-L'anima ho stanca (from Adriana Lecouvreur)
DR9 0.00 dB -11.98 dB 3:00 ?-Sogno
--------------------------------------------------------------------------------
Number of tracks: 13
Official DR value: DR8
Samplerate: 96000 Hz
Channels: 2
Bits per sample: 24
Bitrate: 2643 kbps
Codec: FLAC
================================================================================

Disc 02 - Bocelli (1995)

Bocelli (42:56)-01. Con Te Partiro (4:10)
02. Per Amore (4:42)
03. Macchine Da Guerra (4:09)
04. E Chiove (4:24)
05. Romanza (3:44)
06. The Power of Love (5:04)
07. Vivo Per Lei (feat. Giorgia) (4:24)
08. Le Tue Parole (3:57)
09. Sempre Sempre (4:20)
10. Voglio Restare Cosi (3:52)
-

Official DR value: DR9

foobar2000 1.2.2 / Dynamic Range Meter 1.1.1
log date: 2015-10-19 15:52:44
--------------------------------------------------------------------------------
Analyzed: Andrea Bocelli / The Complete Pop Albums: Bocelli
--------------------------------------------------------------------------------
DR Peak RMS Duration Track
--------------------------------------------------------------------------------
DR8 0.00 dB -11.60 dB 4:10 ?-Con te partirò
DR9 0.00 dB -11.54 dB 4:42 ?-Per amore
DR9 0.00 dB -12.13 dB 4:09 ?-Macchine da guerra
DR9 0.00 dB -11.06 dB 4:24 ?-E chiove
DR9 0.00 dB -13.00 dB 3:44 ?-Romanza
DR9 0.00 dB -11.41 dB 5:04 ?-The Power Of Love
DR8 0.00 dB -10.52 dB 4:24 ?-Vivo per lei (feat. Giorgia)
DR10 0.00 dB -12.89 dB 3:57 ?-Le tue parole
DR9 0.00 dB -11.08 dB 4:20 ?-Sempre sempre
DR9 -0.09 dB -10.62 dB 3:52 ?-Voglio restare cosi
--------------------------------------------------------------------------------
Number of tracks: 10
Official DR value: DR9
Samplerate: 96000 Hz
Channels: 2
Bits per sample: 24
Bitrate: 2713 kbps
Codec: FLAC
================================================================================

Disc 03 - Concerto - One Night in Central Park (2011)

Concerto - One Night in Central Park (01:08:24)-01. Rigoletto, Act 3: La donna è mobile (2:15)
02. Il Trovatore, Act 3: Di quella pira (2:16)
03. Ave Maria, D.839 (4:45)
04. Andrea Chenier, Act 4: Vicino a te s'acqueta (feat. Ana Maria Martinez) (8:15)
05. Les pêcheurs de perles, Act 1: Au fond du temple saint (feat. Bryn Terfel) (5:56)
06. La Boheme, Act 1: O soave fanciulla (feat. Pretty Yende) (4:05)
07. La traviata, Act 1: Libiamo ne' lieti calici (feat. Pretty Yende, Bryn Terfel, Ana Maria Martinez) (3:09)
08. Amazing Grace (4:20)
09. New York, New York (feat. Tony Bennett) (3:26)
10. The Prayer (4:30)
11. More (Ti guarderò nel cuore) (feat. Chris Botti, David Foster) (3:47)
12. Your Love (Once Upon A Time In The West) (3:46)
13, Nel blu, dipinto di blu (Volare) (feat. David Foster) (3:23)
14. Funiculì, Funiculà (feat. Andrea Griminelli) (2:36)
15. En Aranjuez Con Tu Amor (feat. Nicola Benedetti) (3:34)
16. Time To Say Goodbye (Con te partirò) (4:14)
17. Turandot, Act 3: Nessun dorma! (feat. Ana Maria Martinez) (4:07)
-

Official DR value: DR10

foobar2000 1.2.2 / Dynamic Range Meter 1.1.1
log date: 2015-10-19 15:55:20
--------------------------------------------------------------------------------
Analyzed: Andrea Bocelli / The Complete Pop Albums: Concerto - One Night in Central Park
--------------------------------------------------------------------------------
DR Peak RMS Duration Track
--------------------------------------------------------------------------------
DR13 -1.55 dB -18.96 dB 2:15 ?-Rigoletto, Act 3: La donna è mobile
DR9 0.00 dB -12.27 dB 2:16 ?-Il Trovatore, Act 3: Di quella pira
DR11 -0.09 dB -14.43 dB 4:45 ?-Ave Maria, D.839
DR10 0.00 dB -13.63 dB 8:15 ?-Andrea Chenier, Act 4: Vicino a te s'acqueta (feat. Ana Maria Martinez)
DR12 -0.08 dB -15.65 dB 5:56 ?-Les pêcheurs de perles, Act 1: Au fond du temple saint (feat. Bryn Terfel)
DR11 0.00 dB -15.31 dB 4:05 ?-La Boheme, Act 1: O soave fanciulla (feat. Pretty Yende)
DR10 0.00 dB -14.48 dB 3:09 ?-La traviata, Act 1: Libiamo ne' lieti calici (feat. Pretty Yende, Bryn Terfel, Ana Maria Martinez)
DR11 0.00 dB -15.06 dB 4:20 ?-Amazing Grace
DR9 0.00 dB -11.37 dB 3:26 ?-New York, New York (feat. Tony Bennett)
DR9 0.00 dB -12.96 dB 4:30 ?-The Prayer
DR9 0.00 dB -12.39 dB 3:47 ?-More (Ti guarderò nel cuore) (feat. Chris Botti, David Foster)
DR10 0.00 dB -13.31 dB 3:46 ?-Your Love (Once Upon A Time In The West)
DR11 0.00 dB -13.68 dB 3:23 ?-Nel blu, dipinto di blu (Volare) (feat. David Foster)
DR8 0.00 dB -11.11 dB 2:36 ?-Funiculì, Funiculà (feat. Andrea Griminelli)
DR10 0.00 dB -12.81 dB 3:34 ?-En Aranjuez Con Tu Amor (feat. Nicola Benedetti)
DR9 0.00 dB -12.69 dB 4:14 ?-Time To Say Goodbye (Con te partirò)
DR8 0.00 dB -12.68 dB 4:07 ?-Turandot, Act 3: Nessun dorma! (feat. Ana Maria Martinez)
--------------------------------------------------------------------------------
Number of tracks: 17
Official DR value: DR10
Samplerate: 96000 Hz
Channels: 2
Bits per sample: 24
Bitrate: 2688 kbps
Codec: FLAC
================================================================================

Disc 04 - Cieli di Toscana (2001)

Cieli di Toscana (01:00:56)-01. Melodramma (4:08)
02. Mille Lune Mille Onde (3:59)
03. E Sara a Settembre (Someone Like You) (5:03)
04. Chiara (4:00)
05. Mascagni (4:11)
06. Resta Qui (4:06)
07. Il Mistero Dell'Amore (4:27)
08. Se La Gente Usasse Il Cuore (4:58)
08. Si Volto (4:05)
10. L'Abitudine (feat. Helena) (4:19)
11. L'Incontro (4:51)
12. E Mi Manchi Tu (4:59)
13. Il Diavolo e L'Angelo (4:02)
14. L'Ultimo Re (3:49)
-

Official DR value: DR8

foobar2000 1.2.2 / Dynamic Range Meter 1.1.1
log date: 2015-10-19 16:06:29
--------------------------------------------------------------------------------
Analyzed: Andrea Bocelli / The Complete Pop Albums: Cieli di Toscana
--------------------------------------------------------------------------------
DR Peak RMS Duration Track
--------------------------------------------------------------------------------
DR7 0.00 dB -9.22 dB 4:08 ?-Melodramma
DR7 0.00 dB -8.21 dB 3:59 ?-Mille lune mille onde
DR7 0.00 dB -11.00 dB 5:03 ?-E sara'a a Settembre (Someone Like You)
DR9 0.00 dB -11.35 dB 4:00 ?-Chiara
DR7 0.00 dB -9.84 dB 4:11 ?-Mascagni
DR8 0.00 dB -11.93 dB 4:06 ?-Resta qui
DR8 0.00 dB -9.60 dB 4:27 ?-Il mistero dell'amore
DR7 0.00 dB -10.69 dB 4:58 ?-Se la gente usasse il cuore
DR9 0.00 dB -12.33 dB 4:05 ?-Si volto
DR7 0.00 dB -9.22 dB 4:19 ?-L'abitudine (feat. Helena Hellwig)
DR7 0.00 dB -10.05 dB 4:51 ?-L'Incontro (feat. Bono)
DR7 0.00 dB -11.37 dB 4:59 ?-E mi manchi tu
DR8 0.00 dB -9.39 dB 4:02 ?-Il diavolo e l'angelo
DR7 0.00 dB -11.14 dB 3:49 ?-L'Ultimo Re
--------------------------------------------------------------------------------
Number of tracks: 14
Official DR value: DR8
Samplerate: 96000 Hz
Channels: 2
Bits per sample: 24
Bitrate: 2736 kbps
Codec: FLAC
================================================================================

Disc 05 - Amore (2006)

Amore (01:00:34)-01. Amapola (3:42)
02. Besame Mucho (4:01)
03. Les Feuilles Mortes (Autumn Leaves) (4:50)
04. Mi Manchi (feat. Kenny G) (3:35)
05. Somos Novios (It's Impossible) (feat. Christina Aguilera) (4:22)
06. Canzoni Stonate (feat. Stevie Wonder) (5:24)
07. Solamente Una Vez (3:30)
08. Jurame (3:22)
09. Pero Te Extrano (4:07)
10. Momentos (3:54)
11. L'Apputamento (Sentado A'Beira Do Caminho) (4:07)
12. Cuando Me Enamoro (3:55)
13. Estate (feat. Chris Botti) (3:41)
14. Can't Help Falling In Love (Live) (3:25)
15. Because We Believe (4:39)
-

Official DR value: DR7

foobar2000 1.2.2 / Dynamic Range Meter 1.1.1
log date: 2015-10-19 16:27:11
--------------------------------------------------------------------------------
Analyzed: Andrea Bocelli / The Complete Pop Albums: Amore
--------------------------------------------------------------------------------
DR Peak RMS Duration Track
--------------------------------------------------------------------------------
DR7 0.00 dB -10.27 dB 3:42 ?-Amapola
DR6 0.00 dB -7.95 dB 4:01 ?-Besame Mucho
DR7 0.00 dB -9.55 dB 4:50 ?-Les feuilles mortes (Autumn Leaves)
DR7 0.00 dB -10.09 dB 3:35 ?-Mi manchi (feat. Kenny G)
DR7 0.00 dB -8.66 dB 4:22 ?-Somos Novios (It's Impossible) (feat. Christina Aguilera)
DR8 0.00 dB -9.66 dB 5:24 ?-Canzoni stonate (feat. Stevie Wonder)
DR7 0.00 dB -8.24 dB 3:30 ?-Solamente Una Vez
DR7 0.00 dB -8.00 dB 3:22 ?-Jurame (feat. Mario Reyes)
DR6 0.00 dB -9.16 dB 4:07 ?-Pero Te Extrano
DR7 0.00 dB -8.78 dB 3:54 ?-Momentos
DR7 0.00 dB -7.91 dB 4:07 ?-L'appuntamento (Sentado a 'beira do caminho)
DR6 0.00 dB -8.22 dB 3:55 ?-Cuando Me Enamoro
DR7 0.00 dB -9.31 dB 3:41 ?-Estate (feat. Chris Botti)
DR7 0.00 dB -9.52 dB 3:25 ?-Can't Help Falling In Love (Live At Lake Las Vegas 2005)
DR6 0.00 dB -8.50 dB 4:39 ?-Because We Believe
--------------------------------------------------------------------------------
Number of tracks: 15
Official DR value: DR7
Samplerate: 96000 Hz
Channels: 2
Bits per sample: 24
Bitrate: 3260 kbps
Codec: FLAC
================================================================================

Disc 06 - Andrea (2004)

Andrea (59:27)-01. Dell'Amore Non Si Sa (3:42)
02. L'Attesa (4:30)
03. Un Nuovo Giorno (First Day of My Life) (4:16)
04. Tu Ci Sei (4:44)
05. Sin Tu Amor (feat. Mario Reyes) (4:35)
06. Liberta (3:57)
07. Per Noi (4:00)
08. Le Parole Che Non Ti Ho Detto (4:07)
09. Sempre O Mai (3:42)
10. In Canto (4:12)
11. Quante Volte Ti Ho Cercato (5:07)
12. When A Child Is Born (Soleado) (3:49)
13. Go Where Love Goes (feat. Holly Stell) (4:12)
14. Semplicemente (Canto Per Te) (4:32)
-

Official DR value: DR7

foobar2000 1.2.2 / Dynamic Range Meter 1.1.1
log date: 2015-10-19 16:32:10
--------------------------------------------------------------------------------
Analyzed: Andrea Bocelli / The Complete Pop Albums: Andrea
--------------------------------------------------------------------------------
DR Peak RMS Duration Track
--------------------------------------------------------------------------------
DR7 0.00 dB -10.27 dB 3:42 ?-Dell' amore non si sa
DR7 0.00 dB -8.55 dB 4:30 ?-L'Attesa
DR7 0.00 dB -9.37 dB 4:16 ?-Un nuovo giorno (First Day of My Life)
DR7 0.00 dB -9.93 dB 4:44 ?-Tu ci sei
DR7 0.00 dB -7.80 dB 4:35 ?-Sin tu amor (feat. Mario Reyes)
DR7 0.00 dB -8.21 dB 3:57 ?-Libertà
DR8 0.00 dB -9.87 dB 4:00 ?-Per noi
DR7 0.00 dB -9.19 dB 4:07 ?-Le parole che non ti ho detto
DR7 0.00 dB -8.06 dB 3:42 ?-Sempre o mai
DR7 0.00 dB -10.69 dB 4:12 ?-In canto
DR7 0.00 dB -8.13 dB 5:07 ?-Quante volte ti ho cercato
DR7 0.00 dB -10.27 dB 3:49 ?-When a Child Is Born (Soleado)
DR8 0.00 dB -9.43 dB 4:12 ?-Go Where Love Goes (feat. Holly Stell)
DR8 0.00 dB -10.88 dB 4:32 ?-Semplicemente (Canto per te)
--------------------------------------------------------------------------------
Number of tracks: 14
Official DR value: DR7
Samplerate: 96000 Hz
Channels: 2
Bits per sample: 24
Bitrate: 2916 kbps
Codec: FLAC
================================================================================

Disc 07 - Romanza (1997)

Romanza (01:05:43)-01. Con te partiro (4:10)
02. Vivere (feat. Gerardina Trovato) (4:01)
03. Per amore (4:42)
04. Il mare calmo della sera (4:41)
05. Caruso (5:17)
06. Macchine da guerra (4:08)
07. Le tue parole (3:59)
08. Vivo per lei (feat. Giorgia Todrani) (4:25)
09. Romanza (3:44)
10. La luna che non c'e (4:30)
11. Rapsodia (5:29)
12. Voglio restare cosi (3:52)
13. E chiove (4:24)
14. Miserere (feat. John Miles) (4:17)
15. Time to Say Goodbye (Con te partiro) (feat. Sarah Brightman) (4:05)
-

Official DR value: DR8

foobar2000 1.2.2 / Dynamic Range Meter 1.1.1
log date: 2015-10-19 16:41:10
--------------------------------------------------------------------------------
Analyzed: Andrea Bocelli / The Complete Pop Albums: Romanza
--------------------------------------------------------------------------------
DR Peak RMS Duration Track
--------------------------------------------------------------------------------
DR8 0.00 dB -11.60 dB 4:10 ?-Con te partirò
DR8 0.00 dB -10.94 dB 4:01 ?-Vivere (feat. Gerardina Trovato)
DR9 0.00 dB -11.54 dB 4:42 ?-Per amore
DR7 0.00 dB -9.96 dB 4:41 ?-Il mare calmo della sera
DR8 0.00 dB -11.92 dB 5:17 ?-Caruso
DR9 0.00 dB -12.13 dB 4:08 ?-Macchine da guerra
DR10 0.00 dB -12.94 dB 3:59 ?-Le tue parole
DR8 0.00 dB -10.57 dB 4:25 ?-Vivo per lei (feat. Giorgia Todrani)
DR9 0.00 dB -13.00 dB 3:44 ?-Romanza
DR8 0.00 dB -11.08 dB 4:30 ?-La luna che non c'è
DR10 0.00 dB -13.02 dB 5:29 ?-Rapsodia
DR9 -0.06 dB -10.62 dB 3:52 ?-Voglio restare così
DR9 0.00 dB -11.06 dB 4:24 ?-E chiove
DR8 0.00 dB -10.37 dB 4:17 ?-Miserere (feat. John Miles)
DR7 0.00 dB -9.09 dB 4:05 ?-Time to Say Goodbye (Con te partirò) (feat. Sarah Brightman)
--------------------------------------------------------------------------------
Number of tracks: 15
Official DR value: DR8
Samplerate: 96000 Hz
Channels: 2
Bits per sample: 24
Bitrate: 2872 kbps
Codec: FLAC
================================================================================

Disc 08 - Sogno (1999)

Sogno (01:00:30)-01. Canto Della Terra (4:01)
02. The Prayer (feat. Celine Dion) (4:27)
03. Sogno (4:03)
04. 'O Mare e Tu (feat. Dulce Pontes) (4:33)
05. A Volte Il Cuore (4:42)
06. Cantico (4:02)
07. Mai Piu' Cosi' Lontano (4:17)
08. Immenso (4:47)
09. Nel Cuore Lei (feat. Eros Ramazzotti) (3:43)
10. Tremo e T'amo (4:48)
11. I Love Rossini (3:55)
12. Un Canto (4:31)
13. Come Un Fiume Tu (4:44)
14. A Mio Padre (6 Maggio 1992) (3:57)
-

Official DR value: DR8

foobar2000 1.2.2 / Dynamic Range Meter 1.1.1
log date: 2015-10-19 16:44:24
--------------------------------------------------------------------------------
Analyzed: Andrea Bocelli / The Complete Pop Albums: Sogno
--------------------------------------------------------------------------------
DR Peak RMS Duration Track
--------------------------------------------------------------------------------
DR7 0.00 dB -9.91 dB 4:01 ?-Canto della terra
DR8 0.00 dB -11.91 dB 4:27 ?-The Prayer (feat. Céline Dion)
DR8 0.00 dB -10.07 dB 4:03 ?-Sogno
DR8 0.00 dB -10.35 dB 4:33 ?-O mare e tu (feat. Dulce Pontes)
DR8 0.00 dB -9.88 dB 4:42 ?-A volte il cuore
DR7 0.00 dB -9.63 dB 4:02 ?-Cantico
DR7 0.00 dB -9.36 dB 4:17 ?-Mai più così lontano
DR7 0.00 dB -10.39 dB 4:47 ?-Immenso
DR8 0.00 dB -10.48 dB 3:43 ?-Nel cuore lei (feat. Eros Ramazzotti)
DR7 0.00 dB -9.54 dB 4:48 ?-Tremo e t'amo
DR7 0.00 dB -10.07 dB 3:55 ?-I love Rossini
DR7 0.00 dB -9.43 dB 4:31 ?-Un canto
DR7 0.00 dB -9.48 dB 4:44 ?-Come un fiume tu
DR10 0.00 dB -12.07 dB 3:57 ?-A mio padre (6 maggio 1992)
--------------------------------------------------------------------------------
Number of tracks: 14
Official DR value: DR8
Samplerate: 96000 Hz
Channels: 2
Bits per sample: 24
Bitrate: 2675 kbps
Codec: FLAC
================================================================================

Disc 09 - Passione (2013)

Passione (51:45)-01. Perfidia (4:07)
02. Roma nun fa' la stupida stasera (4:13)
03. Champagne (3:49)
04. Anema e core (4:09)
05. Quizas, Quizas, Quizas (feat. Jennifer Lopez) (3:18)
06. Era gia tutto previsto (3:41)
07. Tristeza (3:23)
08. La vie en rose (Virtual duet with Edith Piaf) (3:07)
09. Corcovado - Quiet Nights Of Quiet Stars (feat. Nelly Furtado) (3:34)
10. Sara settembre (September Morn) (3:40)
11. Love In Portofino (3:00)
12. Garota de Ipanema (3:36)
13. Malafemmena (4:16)
14. Love Me Tender (3:52)
-

Official DR value: DR8

foobar2000 1.2.2 / Dynamic Range Meter 1.1.1
log date: 2015-10-19 16:46:12
--------------------------------------------------------------------------------
Analyzed: Andrea Bocelli / The Complete Pop Albums: Passione
--------------------------------------------------------------------------------
DR Peak RMS Duration Track
--------------------------------------------------------------------------------
DR8 0.00 dB -9.46 dB 4:07 ?-Perfidia
DR9 0.00 dB -10.88 dB 4:13 ?-Roma nun fa' la stupida stasera
DR8 0.00 dB -9.75 dB 3:49 ?-Champagne
DR8 0.00 dB -9.26 dB 4:09 ?-Anema e core
DR8 0.00 dB -9.60 dB 3:18 ?-Quizàs, Quizàs, Quizàs (feat. Jennifer Lopez)
DR7 0.00 dB -8.88 dB 3:41 ?-Era gia tutto previsto
DR8 0.00 dB -9.62 dB 3:23 ?-Tristeza
DR8 0.00 dB -9.81 dB 3:07 ?-La vie en rose (Virtual duet with Edith Piaf)
DR9 0.00 dB -10.48 dB 3:34 ?-Corcovado - Quiet Nights Of Quiet Stars (feat. Nelly Furtado)
DR8 0.00 dB -9.46 dB 3:40 ?-Sarà settembre (September Morn)
DR8 0.00 dB -9.29 dB 3:00 ?-Love In Portofino
DR8 0.00 dB -9.51 dB 3:36 ?-Garota de Ipanema
DR8 0.00 dB -10.06 dB 4:16 ?-Malafemmena
DR8 0.00 dB -10.43 dB 3:52 ?-Love Me Tender
--------------------------------------------------------------------------------
Number of tracks: 14
Official DR value: DR8
Samplerate: 96000 Hz
Channels: 2
Bits per sample: 24
Bitrate: 2735 kbps
Codec: FLAC
================================================================================

Disc 10 - Amor (Spanish version of 'Amore') (2006)

Amor (54:11)-01. Besame Mucho (4:01)
02. Cancion Desafinada (Radio Edit) (feat. Stevie Wonder) (3:44)
03. Solamente Una Vez (3:30)
04. Somos Novios (4:22)
05. Jurame (feat. Mario Reyes) (3:22)
06. Pero Te Extrano (4:07)
07. Las Hojas Muertas (4:51)
08. Momentos (3:54)
09. Me faltas 'Mi manchi' (feat. Kenny G) (3:35)
10. Cuando Me Enamoro (3:54)
11. Porque Tu Me Acostumbraste (3:21)
12. Amapola (3:42)
13. Verano Estate (feat. Chris Botti) (3:41)
14. Nuestro Encuentro (Sentado A 'Beira Do Caminho) (4:07)
-

Official DR value: DR7

foobar2000 1.2.2 / Dynamic Range Meter 1.1.1
log date: 2015-10-19 16:54:25
--------------------------------------------------------------------------------
Analyzed: Andrea Bocelli / The Complete Pop Albums: Amor (Spanish version of 'Amore')
--------------------------------------------------------------------------------
DR Peak RMS Duration Track
--------------------------------------------------------------------------------
DR6 0.00 dB -7.95 dB 4:01 ?-Besame Mucho
DR6 0.00 dB -8.19 dB 3:44 ?-Canción Desafinada (Radio Edit) (feat. Stevie Wonder)
DR7 0.00 dB -8.24 dB 3:30 ?-Solamente Una Vez
DR7 0.00 dB -8.66 dB 4:22 ?-Somos Novios
DR7 0.00 dB -8.00 dB 3:22 ?-Júrame (feat. Mario Reyes)
DR6 0.00 dB -9.16 dB 4:07 ?-Pero Te Extraño
DR6 0.00 dB -9.08 dB 4:51 ?-Las Hojas Muertas
DR7 0.00 dB -8.78 dB 3:54 ?-Momentos
DR7 0.00 dB -9.84 dB 3:35 ?-Me faltas 'Mi manchi' (feat. Kenny G)
DR7 0.00 dB -8.47 dB 3:54 ?-Cuando Me Enamoro
DR6 0.00 dB -8.01 dB 3:21 ?-Porque Tú Me Acostumbraste
DR7 0.00 dB -10.27 dB 3:42 ?-Amapola
DR7 0.00 dB -9.03 dB 3:41 ?-Verano Estate (feat. Chris Botti)
DR7 0.00 dB -8.04 dB 4:07 ?-Nuestro Encuentro (Sentado A 'Beira Do Caminho)
--------------------------------------------------------------------------------
Number of tracks: 14
Official DR value: DR7
Samplerate: 96000 Hz
Channels: 2
Bits per sample: 24
Bitrate: 3294 kbps
Codec: FLAC
================================================================================

Disc 11- Love in Portofino (2013)

Love in Portofino (56:06)-01. Love In Portofino (3:00)
02. A mano a mano (4:19)
03. When I Fall in Love (feat. Chris Botti) (4:42)
04. Champan (3:48)
05. Love Me Tender (3:52)
06. Quizas, Quizas, Quizas (feat. Jennifer Lopez) (3:18)
07. Las Hojas Muertas (feat. Veronica Berti) (4:51)
08. L'appuntamento (Sentado a 'beira do caminho) (4:07)
09. Senza fine (3:17)
10. La vie en rose (3:07)
11. Sara settembre (September Morn) (3:43)
12. Qualche stupido 'Ti amo' (Somethin' Stupid) (2:41)
13. Era gia tutto previsto (3:42)
14. Tristeza (3:26)
15. Roma nun fa' la stupida stasera (4:12)
-

Official DR value: DR8

foobar2000 1.2.2 / Dynamic Range Meter 1.1.1
log date: 2015-10-19 17:14:16
--------------------------------------------------------------------------------
Analyzed: Andrea Bocelli / The Complete Pop Albums: Love in Portofino
--------------------------------------------------------------------------------
DR Peak RMS Duration Track
--------------------------------------------------------------------------------
DR8 0.00 dB -9.29 dB 3:00 ?-Love In Portofino
DR9 0.00 dB -12.10 dB 4:19 ?-A mano a mano
DR8 0.00 dB -10.10 dB 4:42 ?-When I Fall in Love (feat. Chris Botti)
DR8 0.00 dB -9.89 dB 3:48 ?-Champán
DR8 0.00 dB -10.43 dB 3:52 ?-Love Me Tender
DR8 0.00 dB -9.60 dB 3:18 ?-Quizás, Quizás, Quizás (feat. Jennifer Lopez)
DR6 0.00 dB -9.08 dB 4:51 ?-Las Hojas Muertas (feat. Veronica Berti)
DR7 0.00 dB -7.91 dB 4:07 ?-L'appuntamento (Sentado a 'beira do caminho)
DR8 0.00 dB -9.46 dB 3:17 ?-Senza fine
DR8 0.00 dB -9.81 dB 3:07 ?-La vie en rose
DR7 0.00 dB -9.58 dB 3:43 ?-Sarà settembre (September Morn)
DR8 0.00 dB -9.03 dB 2:41 ?-Qualche stupido 'Ti amo' (Somethin' Stupid)
DR7 0.00 dB -10.52 dB 3:42 ?-Era già tutto previsto
DR8 0.00 dB -8.67 dB 3:26 ?-Tristeza
DR8 0.00 dB -9.18 dB 4:12 ?-Roma nun fa' la stupida stasera
--------------------------------------------------------------------------------
Number of tracks: 15
Official DR value: DR8
Samplerate: 96000 Hz
Channels: 2
Bits per sample: 24
Bitrate: 2855 kbps
Codec: FLAC
================================================================================

Disc 12 - My Christmas (2009)

My Christmas (54:24)-01. White Christmas (3:57)
02. Angels We Have Heard On High (3:54)
03. Santa Claus Is Coming To Town (3:32)
04. The Christmas Song (With Natalie Cole) (4:32)
05. The Lord's Prayer (With Mormon Tabernacle Choir) (4:23)
06. What Child Is This (With Mary J.Blige) (4:32)
07. Adeste Fideles (3:33)
08. O Tannenbaum (4:16)
09. Jingle Bells (With The Muppets) (3:34)
11. Blue Christmas (feat. Reba McEntire) (4:17)
12. Cantique De Noel (4:33)
13. Caro Gesu 'Bambino (1:42)
14. I Believe (With Katherine Jenkins) (4:24)
15. God Bless Us Everyone (3:16)
-

Official DR value: DR8

foobar2000 1.2.2 / Dynamic Range Meter 1.1.1
log date: 2015-10-19 20:09:54
--------------------------------------------------------------------------------
Analyzed: Andrea Bocelli / The Complete Pop Albums: My Christmas
--------------------------------------------------------------------------------
DR Peak RMS Duration Track
--------------------------------------------------------------------------------
DR9 0.00 dB -11.18 dB 3:57 ?-White Christmas
DR6 0.00 dB -9.53 dB 3:54 ?-Angels We Have Heard On High
DR8 0.00 dB -9.71 dB 3:32 ?-Santa Claus Is Coming To Town
DR7 0.00 dB -10.10 dB 4:32 ?-The Christmas Song (feat. Natalie Cole)
DR8 0.00 dB -11.96 dB 4:23 ?-The Lords Prayer (feat. The Mormon Tabernacle Choir)
DR7 0.00 dB -10.11 dB 4:32 ?-What Child Is This (feat. Mary J. Blige)
DR8 0.00 dB -11.06 dB 3:33 ?-Adeste fidelis
DR9 0.00 dB -12.02 dB 4:16 ?-O tannenbaum
DR7 0.00 dB -9.45 dB 3:34 ?-Jingle Bells (feat. The Muppets)
DR8 0.00 dB -10.72 dB 4:17 ?-Blue Christmas (feat. Reba McEntire)
DR8 0.00 dB -11.09 dB 4:33 ?-Cantique de noel
DR9 0.00 dB -12.28 dB 1:42 ?-Caro gesu bambino
DR7 0.00 dB -11.08 dB 4:24 ?-I Believe (feat. Katherine Jenkins)
DR7 0.00 dB -9.26 dB 3:16 ?-God Bless Us Everyone
--------------------------------------------------------------------------------
Number of tracks: 14
Official DR value: DR8
Samplerate: 96000 Hz
Channels: 2
Bits per sample: 24
Bitrate: 2953 kbps
Codec: FLAC
================================================================================

Disc 13 - Mi Navidad (Spanish version of 'My Christmas') (2009)

Mi Navidad (57:25)-01. Blanca Navidad (3:57)
02. Gloria In Excelsis Deo (Angels We Have Heard On High) (3:55)
03. Santa Claus Llego' A La Ciudad (3:32)
04. The Christmas Song (feat. Natalie Cole) (4:32)
05. The Lord's Prayer (feat. The Mormon Tabernacle Choir) (4:23)
06. What Child Is This (feat. Mary J. Blige) (4:32)
07. Venid Adoremos (Adeste Fideles) (3:33)
08. El Abeto (4:16)
09. Jingle Bells (feat. The Muppets) (3:34)
10. Noche De Paz (4:36)
11. Blue Christmas (feat. Malika Ayane) (4:16)
12. Santa La Noche (Cantique De Noel) (4:34)
13. Caro Gesu bambino (1:42)
14. Bajas de las estrellas (Tu scendi dalle stelle) (2:48)
15. Dios Nos Bendecira (3:15)
-

Official DR value: DR8

foobar2000 1.2.2 / Dynamic Range Meter 1.1.1
log date: 2015-10-19 21:04:55
--------------------------------------------------------------------------------
Analyzed: Andrea Bocelli / The Complete Pop Albums: Mi Navidad (Spanish version of 'My Christmas')
--------------------------------------------------------------------------------
DR Peak RMS Duration Track
--------------------------------------------------------------------------------
DR9 0.00 dB -11.24 dB 3:57 ?-Blanca Navidad
DR6 0.00 dB -9.40 dB 3:55 ?-Gloria In Excelsis Deo (Angels We Have Heard On High)
DR8 0.00 dB -9.77 dB 3:32 ?-Santa Claus Llego' A La Ciudad
DR7 0.00 dB -10.10 dB 4:32 ?-The Christmas Song (feat. Natalie Cole)
DR8 0.00 dB -11.96 dB 4:23 ?-The Lord's Prayer (feat. The Mormon Tabernacle Choir)
DR7 0.00 dB -10.11 dB 4:32 ?-What Child Is This (feat. Mary J. Blige)
DR8 0.00 dB -11.27 dB 3:33 ?-Venid Adoremos (Adeste Fideles)
DR9 0.00 dB -11.92 dB 4:16 ?-El Abeto
DR7 0.00 dB -9.45 dB 3:34 ?-Jingle Bells (feat. The Muppets)
DR7 0.00 dB -10.55 dB 4:36 ?-Noche De Paz
DR9 0.00 dB -10.75 dB 4:16 ?-Blue Christmas (feat. Malika Ayane)
DR8 0.00 dB -11.20 dB 4:34 ?-Santa La Noche (Cantique De Noel)
DR9 0.00 dB -12.28 dB 1:42 ?-Caro Gesù bambino
DR8 0.00 dB -10.46 dB 2:48 ?-Bajas de las estrellas (Tu scendi dalle stelle)
DR7 0.00 dB -8.95 dB 3:15 ?-Dios Nos Bendecira
--------------------------------------------------------------------------------
Number of tracks: 15
Official DR value: DR8
Samplerate: 96000 Hz
Channels: 2
Bits per sample: 24
Bitrate: 2966 kbps
Codec: FLAC
===============================================================================

Disc 14 - Bonus Disc - Outtakes Vol. 1

Bonus Disc - Outtakes Vol. 1 (55:37)-01. La Costumbre (4:22)
02. Un Dulce Melodrama (4:07)
03. Mil Lunas Mil Olas (3:59)
04. Someone Like You (5:04)
05. Tornera'La Neve (4:05)
06. El Misterio Del Amor (4:27)
07. Sueno (Radio Version) (4:03)
08. El Mar Y Tu (feat. Dulce Pontes) (4:33)
09. Canto De La Tierra (Radio Version) (4:00)
10. Ama Credi E Vai (4:39)
11. Quando M'Innamoro (3:56)
12. Somos Novios (4:21)
13. Perfidia (Live) (4:01)
-

Official DR value: DR8

foobar2000 1.2.2 / Dynamic Range Meter 1.1.1
log date: 2015-10-19 21:36:36
--------------------------------------------------------------------------------
Analyzed: Andrea Bocelli / The Complete Pop Albums: Bonus Disc - Outtakes Vol. 1
--------------------------------------------------------------------------------
DR Peak RMS Duration Track
--------------------------------------------------------------------------------
DR7 0.00 dB -10.16 dB 4:22 ?-La Costumbre
DR8 0.00 dB -10.73 dB 4:07 ?-Un Dulce Melodrama
DR7 0.00 dB -8.32 dB 3:59 ?-Mil Lunas Mil Olas
DR7 0.00 dB -10.70 dB 5:04 ?-Someone Like You
DR7 0.00 dB -11.25 dB 4:05 ?-Tornera'La Neve
DR7 0.00 dB -8.99 dB 4:27 ?-El Misterio Del Amor
DR8 0.00 dB -10.16 dB 4:03 ?-Sueno (Radio Version)
DR9 0.00 dB -11.21 dB 4:33 ?-El Mar Y Tu (feat. Dulce Pontes)
DR8 0.00 dB -10.06 dB 4:00 ?-Canto De La Tierra (Radio Version)
DR6 0.00 dB -8.67 dB 4:39 ?-Ama Credi E Vai
DR9 0.00 dB -11.07 dB 3:56 ?-Quando M'Innamoro
DR7 0.00 dB -9.37 dB 4:21 ?-Somos Novios
DR8 0.00 dB -9.70 dB 4:01 ?-Perfidia (Live)
--------------------------------------------------------------------------------
Number of tracks: 13
Official DR value: DR8
Samplerate: 96000 Hz
Channels: 2
Bits per sample: 24
Bitrate: 2774 kbps
Codec: FLAC
================================================================================

Disc 15 - Bonus Disc - Outtakes Vol. 2

Bonus Disc - Outtakes Vol. 2 (48:13)-01. Dell'Amore Non Si Sa (feat. Hayley Westenra) (3:42)
02. Domani (3:08)
03. Liberta (3:56)
04. Blue Christmas (feat. Malika Ayane) (4:17)
05. Tu Scendi Dalle Stelle (2:48)
06. Dio Ci Benedira' (3:15)
07. Il Nostro Incontro (feat. Chris Botti) (4:32)
08. Smile (feat. Chris Botti) (4:29)
09. Solo Piu Che Mai (3:06)
10. Strangers In The Night (3:05)
11. When I Fall In Love (feat. Chris Botti) (4:42)
12. Love In Portofino (Live) (3:23)
13. Love Me Tender (Live) (3:50)
-

Official DR value: DR8

foobar2000 1.2.2 / Dynamic Range Meter 1.1.1
log date: 2015-10-19 21:34:50
--------------------------------------------------------------------------------
Analyzed: Andrea Bocelli / The Complete Pop Albums: Bonus Disc - Outtakes Vol. 2
--------------------------------------------------------------------------------
DR Peak RMS Duration Track
--------------------------------------------------------------------------------
DR7 0.00 dB -9.74 dB 3:42 ?-Dell'Amore Non Si Sa (feat. Hayley Westenra)
DR6 0.00 dB -10.22 dB 3:08 ?-Domani
DR6 0.00 dB -8.54 dB 3:56 ?-Liberta
DR9 0.00 dB -10.82 dB 4:17 ?-Blue Christmas (feat. Malika Ayane)
DR8 0.00 dB -10.47 dB 2:48 ?-Tu Scendi Dalle Stelle
DR6 0.00 dB -8.72 dB 3:15 ?-Dio Ci Benedira'
DR8 -0.01 dB -10.55 dB 4:32 ?-Il Nostro Incontro (feat. Chris Botti)
DR9 0.00 dB -10.91 dB 4:29 ?-Smile (feat. Chris Botti)
DR9 0.00 dB -10.39 dB 3:06 ?-Solo Piu Che Mai
DR9 -0.02 dB -10.89 dB 3:05 ?-Strangers In The Night
DR8 0.00 dB -10.10 dB 4:42 ?-When I Fall In Love (feat. Chris Botti)
DR8 0.00 dB -9.44 dB 3:23 ?-Love In Portofino (Live)
DR8 0.00 dB -10.73 dB 3:50 ?-Love Me Tender (Live)
--------------------------------------------------------------------------------
Number of tracks: 13
Official DR value: DR8
Samplerate: 96000 Hz
Channels: 2
Bits per sample: 24
Bitrate: 2752 kbps
Codec: FLAC
================================================================================

Disc 16 - Bonus Disc - Outtakes Vol. 3

Bonus Disc - Outtakes Vol. 3 (53:46)-01. Ma Dove Sei (feat. David Garrett) (4:08)
02. Quizàs, Quizàs, Quizàs (Live) (feat. Caroline Campbell) (3:16)
03. Anema E Core (Live) (4:05)
05. La Voce Del Silenzio (Live) (feat. Elisa) (5:04)
06. Mille Lune Mille Onde (Live) (4:02)
07. Medley Besame Mucho - Somos Novios - Can't Help Falling In Love (Live) (6:17)
08. Extranos En La Noche (3:04)
09. Chica De Ipanema (3:36)
10. Contigo En La Distancia (feat. Chris Botti) (3:56)
11. El Primer Beso (3:00)
12. Era Ya Todo Previsto (3:41)
13. Septiembre Amor (3:41)
-

Official DR value: DR8

foobar2000 1.2.2 / Dynamic Range Meter 1.1.1
log date: 2015-10-19 21:47:33
--------------------------------------------------------------------------------
Analyzed: Andrea Bocelli / The Complete Pop Albums: Bonus Disc - Outtakes Vol. 3
--------------------------------------------------------------------------------
DR Peak RMS Duration Track
--------------------------------------------------------------------------------
DR7 0.00 dB -9.31 dB 4:08 ?-Ma Dove Sei (feat. David Garrett)
DR8 0.00 dB -9.87 dB 3:16 ?-Quizàs, Quizàs, Quizàs (Live) (feat. Caroline Campbell)
DR8 0.00 dB -9.22 dB 4:05 ?-Anema E Core (Live)
DR9 0.00 dB -11.94 dB 5:56 ?-Italia (Live) (feat. Chris Botti)
DR8 0.00 dB -11.58 dB 5:04 ?-La Voce Del Silenzio (Live) (feat. Elisa)
DR8 0.00 dB -10.43 dB 4:02 ?-Mille Lune Mille Onde (Live)
DR10 0.00 dB -11.70 dB 6:17 ?-Medley Besame Mucho - Somos Novios - Can't Help Falling In Love (Live)
DR9 0.00 dB -10.99 dB 3:04 ?-Extranos En La Noche
DR8 -0.02 dB -9.64 dB 3:36 ?-Chica De Ipanema
DR8 0.00 dB -9.89 dB 3:56 ?-Contigo En La Distancia (feat. Chris Botti)
DR8 0.00 dB -9.27 dB 3:00 ?-El Primer Beso
DR7 0.00 dB -8.98 dB 3:41 ?-Era Ya Todo Previsto
DR8 0.00 dB -9.15 dB 3:41 ?-Septiembre Amor
--------------------------------------------------------------------------------
Number of tracks: 13
Official DR value: DR8
Samplerate: 96000 Hz
Channels: 2
Bits per sample: 24
Bitrate: 2782 kbps
Codec: FLAC
================================================================================
Огромная благодарность за релизOlegJetHornet
[teatrix.ru].t22483.torrent 
Торрент: Зарегистрирован [ 2016-03-21 00:01 ] · DFE280686B534A0AA167E7D51BEE85EA6683A3D2

Скачать .torrent

Скачать

117 KB

Статус: проверено
Скачан: 1 раз
Размер: 18.13 GB
terms.php



Быстрый ответ

Имя:

      
Для отправки сообщений необходимо включить JavaScript
Показать сообщения:    

Текущее время: 05-Дек 15:32

Часовой пояс: UTC + 3


Вы можете начинать темы
Вы можете отвечать на сообщения
Вы не можете редактировать свои сообщения
Вы не можете удалять свои сообщения
Вы не можете голосовать в опросах
Вы не можете прикреплять файлы к сообщениям
Вы можете скачивать файлы