(Classical) Deutsche Harmonia Mundi - 50 CD Collection - 2014, FLAC (image+.cue) lossless


Статистика раздачи [Обновить пиров]
Размер:  14.28 GB   |    Зарегистрирован:  8 месяцев 15 дней   |    Скачан:  3 раза

Полного источника не было: 3 дня

 
   
 
 
 

[Цитировать]

Deutsche Harmonia Mundi - 50 CD Collection
Жанр: Classical
Год издания диска: 2014
Издатель (лейбл): Deutsche Grammophon / Sony Music
Номер по каталогу: 88875037502
Год записи: 2014
Аудиокодек: FLAC
Тип рипа: image+.cue
Битрейт аудио: lossless
Продолжительность: ~2 дней, 05:41:55
Источник: скачано из сети; Спасибо, Vilboa
Наличие сканов в содержимом раздачи: да

CD01: Händel alla Turca "Amor Oriental" [69.27]:

Исполнители:
Juanita Lascarro, soprano
Frorin Cezar Ouatu, countertenor
Ahmet Özhan, dervish, singer
Ensemble l'Arte del Mondo
Pera Ensemble
Треклист:
01. Alcina - Overture (05:02)
Rinaldo
02. 'Augelletti che cantate' (Armida) (03:10)
03. 'Or la tromba in suon festante' (Rinaldo) (03:29)
04. Battaglia (01:24)
05. 'Fermati ... Non, crudel' (Armida, Rinaldo) (01:59)
06. 'Furie terribili' (Rinaldo) (01:52)
Giulio Cesare
07. 'Son nata' (Cornelia, Sesto) (04:15)
08. 'Piangero la sorte mia' (Cleopatra) (02:26)
Rinaldo
09. 'Venti, turbini, prestate' (Rinaldo) (03:34)
10. Prelude (00:49)
11. 'Hak selleri hayreyler' Erzurumlu Ibrahim Hakki (04:49)
12. 'Kanun Taksim', Turkish improvisation on Kanun (01:04)
13. Serse - 'Ombra mai fu di vegetabile' (Serse) (02:37)
14. Rinaldo - 'Ah crudel' (Armida) (05:49)
15. 'Gusel Asik' Sebilci / Abdal (02:34)
16. Alcina - Prelude 'Dream music' (01:36)
17. Rinaldo - Scherzano sul tuo volto'/' Ridono sul tuo labbro (03:23)
18. Kemence improvisation (01:02)
19. Giulio Cesare - 'Empio, diro, tu sei' (Giulio Cesare) (03:29)
20. Ud improvisation (01:00)
21. Giulio Cesare - 'Se pieta di me non senti' (Cleopatra) (04:08)
22. Percussion improvisation (00:46)
23. Alcina - Tamburino (01:01)
24. Agrippina - 'No, no ch'io bon apprezzo' (Ottone, Poppea) (03:43)
25. Finale: Ilahis, anonym/ Niyazi Misri (04:17)-

LOG CD01:

Exact Audio Copy V1.0 beta 3 from 29. August 2011
EAC extraction logfile from 19. October 2015, 12:46
Ensembles l`arte del mondo & Pera / Handel alla turca - Amor Oriental
Used drive : PIONEER BD-RW BDR-207M Adapter: 0 ID: 0
Read mode : Secure
Utilize accurate stream : Yes
Defeat audio cache : Yes
Make use of C2 pointers : No
Read offset correction : 667
Overread into Lead-In and Lead-Out : No
Fill up missing offset samples with silence : Yes
Delete leading and trailing silent blocks : No
Null samples used in CRC calculations : Yes
Used interface : Native Win32 interface for Win NT & 2000
Used output format : User Defined Encoder
Selected bitrate : 128 kBit/s
Quality : High
Add ID3 tag : No
Command line compressor : C:\Program Files\Exact Audio Copy\Flac\flac.exe
Additional command line options : -V -8 -T "Date=%year%" -T "Genre=%genre%" %source%
TOC of the extracted CD
Track | Start | Length | Start sector | End sector
---------------------------------------------------------
1 | 0:00.00 | 5:02.30 | 0 | 22679
2 | 5:02.30 | 3:10.09 | 22680 | 36938
3 | 8:12.39 | 3:29.33 | 36939 | 52646
4 | 11:41.72 | 1:24.45 | 52647 | 58991
5 | 13:06.42 | 1:59.33 | 58992 | 67949
6 | 15:06.00 | 1:52.21 | 67950 | 76370
7 | 16:58.21 | 4:15.05 | 76371 | 95500
8 | 21:13.26 | 2:26.49 | 95501 | 106499
9 | 23:40.00 | 3:34.47 | 106500 | 122596
10 | 27:14.47 | 0:49.51 | 122597 | 126322
11 | 28:04.23 | 4:49.15 | 126323 | 148012
12 | 32:53.38 | 1:04.19 | 148013 | 152831
13 | 33:57.57 | 2:37.10 | 152832 | 164616
14 | 36:34.67 | 5:49.12 | 164617 | 190803
15 | 42:24.04 | 2:34.08 | 190804 | 202361
16 | 44:58.12 | 1:36.30 | 202362 | 209591
17 | 46:34.42 | 3:23.40 | 209592 | 224856
18 | 49:58.07 | 1:02.74 | 224857 | 229580
19 | 51:01.06 | 3:29.30 | 229581 | 245285
20 | 54:30.36 | 1:00.02 | 245286 | 249787
21 | 55:30.38 | 4:08.61 | 249788 | 268448
22 | 59:39.24 | 0:46.58 | 268449 | 271956
23 | 60:26.07 | 1:01.11 | 271957 | 276542
24 | 61:27.18 | 3:43.26 | 276543 | 293293
25 | 65:10.44 | 4:17.35 | 293294 | 312603
Range status and errors
Selected range
Filename C:\Program Files\Exact Audio Copy\Flac\Handel alla turca - Amor Oriental.wav
Peak level 97.6 %
Extraction speed 7.3 X
Range quality 100.0 %
Test CRC 7583EE46
Copy CRC 7583EE46
Copy OK
No errors occurred
End of status report
==== Log checksum 074287892DDDD25EFEFB4BEA80F0CA81906436D10493E86D14FBBDE9C97BB3BF ====

CD02: Thomas Arne - The Masque of Alfred [76.10]:

Исполнители:
Jennifer Smith (Eltruda, Edith), soprano
Christine Brandes (Emma, Spirit), soprano
David Daniels (Prince Edward), countertenor
Jamie MacDougall (Colin, Alfred), tenor
Philharmonia Baroque Orchestra
Philharmonia Chorale
Direction - Nicholas McGegan
Треклист:
Overture
01. Allegro moderato (02:46)
02. Andante (02:40)
03. Tempo di minuetto (01:22)
Act I.
04. Air 'Though to a desert isle confin'd' (Corin) (01:42)
05. Air 'The shepherd's plain life' (Emma) - Duet 'Then let us the snare of ambit... (03:23)
06. Air 'Come calm content' (Prince Edward) (03:25)
07. Air 'Sweet valley say where' (Eltruda) (02:12)
08. Air 'Why beats my heart with such devotion' (Prince Edward) (03:47)
09. Trio 'Let not those who love complain' (Alfred, Prince Edward, Eltruda) (03:19)
10. Air 'If those who live in shepherd's bow'r' (Emma) (02:18)
Act II.
11. Air 'A youth adorn'd with ev'ry art' (Edith) (04:45)
12. Air 'From the dawn of early morning' (Alfred) (05:18)
13. Air 'As calms succeed when storms are past' (Prince Edward) (01:37)
14. Air 'Hear, Alfred, hear' (Spirit) (02:19)
15. Air 'Gracious heav'n, O hear me!' (Eltruda) (05:58)
16. Air 'Vengeance, O come inspire me!' (Prince Edward) (06:44)
17. Air 'Though storms awhile the sun obscure' (Alfred) (04:11)
18. Dirge 'There honour comes, a pilgrim grey' (Spirit) (02:54)
Act III.
19. Recitative 'Ah, me! What fears oppress my throbbing heart!' (Recitat... (01:01)
20. Air 'Guardian angels, O descend' (Eltruda) (02:09)
21. Air 'Arise, sweet messenger of the morn' (Emma) (02:32)
22. March with a side drum (01:27)
23. Air 'See liberty, virtue and honour appearing' (Prince Edward) (04:35)
24. Ode 'When Britain first at heav'ns command' / 'Rule Brittania' (Alfred, Eltru... (03:35)-

LOG CD02:

Exact Audio Copy V1.0 beta 3 from 29. August 2011
EAC extraction logfile from 19. October 2015, 13:16
Nicholas McGegan / Arne - The Masque of Alfred
Used drive : PIONEER BD-RW BDR-207M Adapter: 0 ID: 0
Read mode : Secure
Utilize accurate stream : Yes
Defeat audio cache : Yes
Make use of C2 pointers : No
Read offset correction : 667
Overread into Lead-In and Lead-Out : No
Fill up missing offset samples with silence : Yes
Delete leading and trailing silent blocks : No
Null samples used in CRC calculations : Yes
Used interface : Native Win32 interface for Win NT & 2000
Used output format : User Defined Encoder
Selected bitrate : 128 kBit/s
Quality : High
Add ID3 tag : No
Command line compressor : C:\Program Files\Exact Audio Copy\Flac\flac.exe
Additional command line options : -V -8 -T "Date=%year%" -T "Genre=%genre%" %source%
TOC of the extracted CD
Track | Start | Length | Start sector | End sector
---------------------------------------------------------
1 | 0:00.00 | 2:46.20 | 0 | 12469
2 | 2:46.20 | 2:40.40 | 12470 | 24509
3 | 5:26.60 | 1:22.25 | 24510 | 30684
4 | 6:49.10 | 1:42.60 | 30685 | 38394
5 | 8:31.70 | 3:23.07 | 38395 | 53626
6 | 11:55.02 | 3:25.08 | 53627 | 69009
7 | 15:20.10 | 2:12.55 | 69010 | 78964
8 | 17:32.65 | 3:47.12 | 78965 | 96001
9 | 21:20.02 | 3:19.53 | 96002 | 110979
10 | 24:39.55 | 2:18.12 | 110980 | 121341
11 | 26:57.67 | 4:45.23 | 121342 | 142739
12 | 31:43.15 | 5:18.17 | 142740 | 166606
13 | 37:01.32 | 1:37.73 | 166607 | 173954
14 | 38:39.30 | 2:19.27 | 173955 | 184406
15 | 40:58.57 | 5:58.45 | 184407 | 211301
16 | 46:57.27 | 6:44.23 | 211302 | 241624
17 | 53:41.50 | 4:11.57 | 241625 | 260506
18 | 57:53.32 | 2:54.65 | 260507 | 273621
19 | 60:48.22 | 1:01.53 | 273622 | 278249
20 | 61:50.00 | 2:09.67 | 278250 | 287991
21 | 63:59.67 | 2:32.40 | 287992 | 299431
22 | 66:32.32 | 1:27.63 | 299432 | 306019
23 | 68:00.20 | 4:35.02 | 306020 | 326646
24 | 72:35.22 | 3:36.05 | 326647 | 342851
Range status and errors
Selected range
Filename C:\Program Files\Exact Audio Copy\Flac\Arne - The Masque of Alfred.wav
Peak level 97.8 %
Extraction speed 7.8 X
Range quality 100.0 %
Test CRC 004688DC
Copy CRC 004688DC
Copy OK
No errors occurred
End of status report
==== Log checksum 77FB7E0B6727284407040AECB60DA5F60B70B8BFB96AD5C1B9DF1BD2677D372A ====

CD03: C.P.E. Bach - Hamburger Sinfonien, WQ 182, 3-5; Concerti WQ 165 & 43, 4 [70.34]:

Исполнители:
Hans-Peter Westermann, oboe
Andreas Staier, harpsichord
Freiburger Barockorchester
Direction - Thomas Hengelbrock
Треклист:
Sinfonie C-dur Wq 182,3 (H 659):
01. Allegro assai (02:46)
02. Adagio (03:25)
03. Allegretto (05:36)
Concerto C-moll fur Cembalo, Streicher und Bc Wq 43,4 (H 474):
04. Allegro assai (03:17)
05. Poco Adagio (01:55)
06. Tempo di Menuetto (02:15)
07. Allegro assai (04:31)
Sinfonie A-dur Wq 182,4 (H 660):
08. Allegro ma non troppo (04:31)
09. Largo et Innocemente (03:49)
10. Allegro assai (04:23)
Concerto C-moll fur Oboe, Streicher und Bc Wq 165 (H 468):
11. Allegro (06:31)
12. Adagio (09:14)
13. Allegro ma non troppo (07:19)
Sinfonie H-moll Wq 182,5 (H 661):
14. Allegretto (03:58)
15. Larghetto (03:13)
16. Presto (03:43)-

LOG CD03:

Exact Audio Copy V1.0 beta 3 from 29. August 2011
EAC extraction logfile from 19. October 2015, 13:42
Thomas Hengelbrock / C.P.E. Bach - Hamburger Sinfonien, Concerti
Used drive : PIONEER BD-RW BDR-207M Adapter: 0 ID: 0
Read mode : Secure
Utilize accurate stream : Yes
Defeat audio cache : Yes
Make use of C2 pointers : No
Read offset correction : 667
Overread into Lead-In and Lead-Out : No
Fill up missing offset samples with silence : Yes
Delete leading and trailing silent blocks : No
Null samples used in CRC calculations : Yes
Used interface : Native Win32 interface for Win NT & 2000
Used output format : User Defined Encoder
Selected bitrate : 128 kBit/s
Quality : High
Add ID3 tag : No
Command line compressor : C:\Program Files\Exact Audio Copy\Flac\flac.exe
Additional command line options : -V -8 -T "Date=%year%" -T "Genre=%genre%" %source%
TOC of the extracted CD
Track | Start | Length | Start sector | End sector
---------------------------------------------------------
1 | 0:00.00 | 2:46.50 | 0 | 12499
2 | 2:46.50 | 3:25.37 | 12500 | 27911
3 | 6:12.12 | 5:36.50 | 27912 | 53161
4 | 11:48.62 | 3:17.30 | 53162 | 67966
5 | 15:06.17 | 1:55.15 | 67967 | 76606
6 | 17:01.32 | 2:15.50 | 76607 | 86781
7 | 19:17.07 | 4:31.55 | 86782 | 107161
8 | 23:48.62 | 4:31.28 | 107162 | 127514
9 | 28:20.15 | 3:49.10 | 127515 | 144699
10 | 32:09.25 | 4:23.72 | 144700 | 164496
11 | 36:33.22 | 6:31.70 | 164497 | 193891
12 | 43:05.17 | 9:14.43 | 193892 | 235484
13 | 52:19.60 | 7:19.25 | 235485 | 268434
14 | 59:39.10 | 3:58.30 | 268435 | 286314
15 | 63:37.40 | 3:13.37 | 286315 | 300826
16 | 66:51.02 | 3:43.73 | 300827 | 317624
Range status and errors
Selected range
Filename C:\Program Files\Exact Audio Copy\Flac\C.P.E. Bach - Hamburger Sinfonien, Concerti.wav
Peak level 100.0 %
Extraction speed 7.4 X
Range quality 99.9 %
Test CRC E566FB2F
Copy CRC E566FB2F
Copy OK
No errors occurred
End of status report
==== Log checksum AB0D93BF16AE60A4C304393731734E83B240F3AF06065B5EDF05C2CCB9E3B1E2 ====

CD04: Bach - Concerti, Ciaccona, Partita [69.10]:

Исполнители:
Skip Sempé, harpsichord
Capriccio Stravagante
Треклист:
01. Ciaccona in D, BWV 1004 (11:06)
Concerto in D Major, BWV 1054:
02. I. [Allegro] (06:51)
03. II. Adagio e piano sempre (05:27)
04. III. Allegro (02:38)
Partita IV in D Major, BWV 828:
05. I. Ouverture (06:03)
06. II. Allemande (09:25)
07. III. Courante (03:33)
08. IV. Aria (02:06)
09. V. Sarabande (05:44)
10. VI. Menuet (01:15)
11. VII. Gigue (03:28)
Concerto in A Major, BWV 1055:
12. I. Allegro (03:34)
13. II. Larghetto (04:07)
14. III. Allegro ma non tanto (03:48)-

LOG CD04:

Exact Audio Copy V1.0 beta 3 from 29. August 2011
EAC extraction logfile from 19. October 2015, 15:16
Skip Sempé - Capriccio Stravagante / Bach - Concerti, Ciaccona, Partita
Used drive : PIONEER BD-RW BDR-207M Adapter: 0 ID: 0
Read mode : Secure
Utilize accurate stream : Yes
Defeat audio cache : Yes
Make use of C2 pointers : No
Read offset correction : 667
Overread into Lead-In and Lead-Out : No
Fill up missing offset samples with silence : Yes
Delete leading and trailing silent blocks : No
Null samples used in CRC calculations : Yes
Used interface : Native Win32 interface for Win NT & 2000
Used output format : User Defined Encoder
Selected bitrate : 128 kBit/s
Quality : High
Add ID3 tag : No
Command line compressor : C:\Program Files\Exact Audio Copy\Flac\flac.exe
Additional command line options : -V -8 -T "Date=%year%" -T "Genre=%genre%" %source%
TOC of the extracted CD
Track | Start | Length | Start sector | End sector
---------------------------------------------------------
1 | 0:00.00 | 11:06.70 | 0 | 50019
2 | 11:06.70 | 6:51.00 | 50020 | 80844
3 | 17:57.70 | 5:27.35 | 80845 | 105404
4 | 23:25.30 | 2:38.57 | 105405 | 117311
5 | 26:04.12 | 6:03.05 | 117312 | 144541
6 | 32:07.17 | 9:25.13 | 144542 | 186929
7 | 41:32.30 | 3:33.32 | 186930 | 202936
8 | 45:05.62 | 2:06.25 | 202937 | 212411
9 | 47:12.12 | 5:44.10 | 212412 | 238221
10 | 52:56.22 | 1:15.38 | 238222 | 243884
11 | 54:11.60 | 3:28.20 | 243885 | 259504
12 | 57:40.05 | 3:34.70 | 259505 | 275624
13 | 61:15.00 | 4:07.65 | 275625 | 294214
14 | 65:22.65 | 3:48.25 | 294215 | 311339
Range status and errors
Selected range
Filename C:\Program Files\Exact Audio Copy\Flac\Bach - Concerti, Ciaccona, Partita.wav
Peak level 85.9 %
Extraction speed 7.3 X
Range quality 100.0 %
Test CRC 701BC190
Copy CRC 701BC190
Copy OK
No errors occurred
End of status report
==== Log checksum 9DBC74FFBB379755883AFE0C84855A5558C9A7C0BDC8FE9B8B671700BBB12756 ====

CD05: Bach - Notenbüchlein für Anna Magdalena Bach [45.00]:

Исполнители:
Elly Ameling, soprano
Hans-Martin Linde, baritone
Tolzer Knabenchor
Gustav Leonhardt, harpsichord
Johannes Koch, viola da gamba
Angelica May, violoncello
Rudolf Ewerhart, positive
Треклист:
01. Polonaise g-moll, BWV Anh. 119 (00:54)
02. Marche Es-dur, BWV Anh.127 (01:35)
03. Menuet G-dur & g-moll, BWV 114/115 (02:40)
04. Willst du dein Herz mir schenken, BWV 518 (02:27)
05. Rondeau B-dur (Fr.Couperin), BWV Anh. 183 (04:40)
06. Bist du bei mir, BWV 508 (02:21)
07. Aria fur Clavier G-dur, BWV 988, 1 (02:16)
08. So oft ich meine Tobackspfeife, BWV 515a (03:47)
09. Marche G-dur, (C,Ph.E.Bach), BWV Anh.124 (01:27)
10. Allemande d-moll, BWV 812, 1 (04:08)
11. Dir, dir, Jehova, will ich singen, BWV 299 (02:29)
12. Praeludium C-dur, BWV 846, 1 (01:53)
13. Menuet G-dur, BWV Anh.116 (01:22)
14. Marche D-dur (C.PH.E.Bach), BWV Anh. 122 (00:54)
15. Musette D-dur, BWV Anh.126 (00:48)
16. Rezitativ Ich hab genug und Arie: Schlummert ein ihr matten Augen,BWV 82, 2&3 (08:13)
17. Chorealbeabeitung Er nur den lieben Gott lasst walten, BWV 691 (01:39)
18. O Ewigkeit du Donnerwort, BWV 513 (4 stimmig) (01:18)-

LOG CD05:

Exact Audio Copy V1.0 beta 3 from 29. August 2011
EAC extraction logfile from 19. October 2015, 14:12
Elly Ameling, Hans-Martin Linde, Gustav Leonhardt / Bach - Notenbüchlein für Anna Magdalena Bach
Used drive : PIONEER BD-RW BDR-207M Adapter: 0 ID: 0
Read mode : Secure
Utilize accurate stream : Yes
Defeat audio cache : Yes
Make use of C2 pointers : No
Read offset correction : 667
Overread into Lead-In and Lead-Out : No
Fill up missing offset samples with silence : Yes
Delete leading and trailing silent blocks : No
Null samples used in CRC calculations : Yes
Used interface : Native Win32 interface for Win NT & 2000
Used output format : User Defined Encoder
Selected bitrate : 128 kBit/s
Quality : High
Add ID3 tag : No
Command line compressor : C:\Program Files\Exact Audio Copy\Flac\flac.exe
Additional command line options : -V -8 -T "Date=%year%" -T "Genre=%genre%" %source%
TOC of the extracted CD
Track | Start | Length | Start sector | End sector
---------------------------------------------------------
1 | 0:00.32 | 0:54.13 | 32 | 4094
2 | 0:54.45 | 1:35.65 | 4095 | 11284
3 | 2:30.35 | 2:40.57 | 11285 | 23341
4 | 5:11.17 | 2:27.68 | 23342 | 34434
5 | 7:39.10 | 4:40.22 | 34435 | 55456
6 | 12:19.32 | 2:21.08 | 55457 | 66039
7 | 14:40.40 | 2:16.27 | 66040 | 76266
8 | 16:56.67 | 3:47.53 | 76267 | 93344
9 | 20:44.45 | 1:27.45 | 93345 | 99914
10 | 22:12.15 | 4:08.45 | 99915 | 118559
11 | 26:20.60 | 2:29.17 | 118560 | 129751
12 | 28:50.02 | 1:53.43 | 129752 | 138269
13 | 30:43.45 | 1:22.37 | 138270 | 144456
14 | 32:06.07 | 0:54.18 | 144457 | 148524
15 | 33:00.25 | 0:48.42 | 148525 | 152166
16 | 33:48.67 | 8:13.33 | 152167 | 189174
17 | 42:02.25 | 1:39.72 | 189175 | 196671
18 | 43:42.22 | 1:19.05 | 196672 | 202601
Range status and errors
Selected range
Filename C:\Program Files\Exact Audio Copy\Flac\Bach - Notenbüchlein für Anna Magdalena Bach.wav
Peak level 93.6 %
Extraction speed 6.6 X
Range quality 100.0 %
Test CRC F3902EA6
Copy CRC F3902EA6
Copy OK
No errors occurred
End of status report
==== Log checksum 58F736E10B1B3ACE783F6EFE516214A03DDECE93E6CF507C35BDD9D8F707E1E6 ====

CD06: Bach - Orgelwerke [71.56]:

Исполнители:
Harald Vogel, organ
Треклист:
01. Piece d'Orgue (Fantasia) G-Dur, BWV 572 (08:25)
02. Pastorale F-Dur, BWV 590 (11:26)
03. Vom Himmel hoch, BWV 700 & 701 (05:39)
04. Toccata, Adagio und Fuge C-Dur, BWV 564 (17:48)
05. Gelobet seist du, Jesu Christ, BWV 723 & 722 (04:36)
06. Wir Christenleut', BWV 710 (02:26)
07. In dulci jubilo, BWV 729 (02:29)
08. Sarabanda con Partite C-Dur, BWV 990 (09:12)
09. Fantasia c-moll BWV deest (03:36)
10. Praeludium und Fuge g-moll, BWV 535a (06:14)-

LOG CD06:

Exact Audio Copy V1.0 beta 3 from 29. August 2011
EAC extraction logfile from 19. October 2015, 15:44
Harald Vogel / Bach - Orgelwerke
Used drive : PIONEER BD-RW BDR-207M Adapter: 0 ID: 0
Read mode : Secure
Utilize accurate stream : Yes
Defeat audio cache : Yes
Make use of C2 pointers : No
Read offset correction : 667
Overread into Lead-In and Lead-Out : No
Fill up missing offset samples with silence : Yes
Delete leading and trailing silent blocks : No
Null samples used in CRC calculations : Yes
Used interface : Native Win32 interface for Win NT & 2000
Used output format : User Defined Encoder
Selected bitrate : 128 kBit/s
Quality : High
Add ID3 tag : No
Command line compressor : C:\Program Files\Exact Audio Copy\Flac\flac.exe
Additional command line options : -V -8 -T "Date=%year%" -T "Genre=%genre%" %source%
TOC of the extracted CD
Track | Start | Length | Start sector | End sector
---------------------------------------------------------
1 | 0:00.00 | 8:25.28 | 0 | 37902
2 | 8:25.28 | 11:26.15 | 37903 | 89367
3 | 19:51.43 | 5:39.55 | 89368 | 114847
4 | 25:31.23 | 17:48.42 | 114848 | 194989
5 | 43:19.65 | 4:36.13 | 194990 | 215702
6 | 47:56.03 | 2:26.57 | 215703 | 226709
7 | 50:22.60 | 2:29.45 | 226710 | 237929
8 | 52:52.30 | 9:12.50 | 237930 | 279379
9 | 62:05.05 | 3:36.63 | 279380 | 295642
10 | 65:41.68 | 6:14.00 | 295643 | 323692
Range status and errors
Selected range
Filename C:\Program Files\Exact Audio Copy\Flac\Bach - Orgelwerke.wav
Peak level 85.7 %
Extraction speed 7.5 X
Range quality 100.0 %
Test CRC 1A5003FC
Copy CRC 1A5003FC
Copy OK
No errors occurred
End of status report
==== Log checksum 738D2F784C12C91EBEA5178B22C5BC007281977F55D01153379293F107F29E0E ====

CD07: Baroque Trumpet Music [64.10]:

Исполнители:
Trompeten Consort Friedemann Immer
Треклист:
01. Telemann - Concerto in D major for 3 trumpets, timpani & organ (08:34)
02. Anonymus - 'Sinfonia a due trombe' in D major for 2 trumpets & organ (06:46)
03. Bach - Three chorale preludes for trumpet & organ (07:41)
04. Franceschini - Sonata in D major for 2 trumpets & organ (07:02)
05. Anonymus - 'Sonata a 5 Clarini' in C major for 5 trumpets & organ (03:34)
06. Handel - Suite in D major for 2 trumpets, timpani & organ (08:18)
07. Biber - Sonata XII in C major for 2 trumpets, timpani & organ (04:53)
08. 'Balletti' in C major for 2 trumpets & organ (09:34)
09. Mouret - 'Fanfares pour 4 trompettes, timbales et orgue' in D major (09:22)-

LOG CD07:

Exact Audio Copy V1.0 beta 3 from 29. August 2011
EAC extraction logfile from 19. October 2015, 16:27
Trompeten Consort Friedemann Immer / Baroque Trumpet Music
Used drive : PIONEER BD-RW BDR-207M Adapter: 0 ID: 0
Read mode : Secure
Utilize accurate stream : Yes
Defeat audio cache : Yes
Make use of C2 pointers : No
Read offset correction : 667
Overread into Lead-In and Lead-Out : No
Fill up missing offset samples with silence : Yes
Delete leading and trailing silent blocks : No
Null samples used in CRC calculations : Yes
Used interface : Native Win32 interface for Win NT & 2000
Used output format : User Defined Encoder
Selected bitrate : 128 kBit/s
Quality : High
Add ID3 tag : No
Command line compressor : C:\Program Files\Exact Audio Copy\Flac\flac.exe
Additional command line options : -V -8 -T "Date=%year%" -T "Genre=%genre%" %source%
TOC of the extracted CD
Track | Start | Length | Start sector | End sector
---------------------------------------------------------
1 | 0:00.32 | 8:34.50 | 32 | 38631
2 | 8:35.07 | 6:46.00 | 38632 | 69081
3 | 15:21.07 | 7:41.25 | 69082 | 103681
4 | 23:02.32 | 7:02.38 | 103682 | 135369
5 | 30:04.70 | 3:34.37 | 135370 | 151456
6 | 33:39.32 | 8:18.50 | 151457 | 188856
7 | 41:58.07 | 4:53.38 | 188857 | 210869
8 | 46:51.45 | 9:34.62 | 210870 | 253981
9 | 56:26.32 | 9:22.25 | 253982 | 296156
Range status and errors
Selected range
Filename C:\Program Files\Exact Audio Copy\Flac\Baroque Trumpet Music.wav
Peak level 99.0 %
Extraction speed 7.2 X
Range quality 100.0 %
Test CRC BEA99504
Copy CRC BEA99504
Copy OK
No errors occurred
End of status report
==== Log checksum AE9C94E2EFCE3732626972316B4A3A0C2EA3588AEE3DEAB0FF6731BB3B684C67 ====

CD08-10: Beethoven - Sonatas for fortepiano and violin - CD8 [78.45], CD9 [78.07], CD10 [77.22]:

Исполнители:
Jo van Immerseel, fortepiano
Jaap Schröder, violin
Треклист:
CD8
SONATA No.5 in F major, Op.24 'Fruhling'
01. I. Allegro (09:26)
02. II. Adagio molto espressivo (05:54)
03. III. Scherzo: Allegro molto (01:17)
04. IV. Rondo: Allegro ma non troppo (06:23)
SONATA No.4 in A minor, Op.23
05. I. Presto (05:10)
06. II. Andante scherzoso, piu Allegretto (07:19)
07. III. Allegro molto (05:30)
SONATA No.3 in E-flat major, Op.12 No.3
08. I. Allegro con spirito (08:09)
09. II. Adagio con molt'espressione (06:52)
10. III. Rondo: Allegro molto (04:27)
SONATA No.8 in G major, Op.30 No.3
11. I. Allegro Assai (06:30)
12. II. Tempo di Minuetto, ma molto moderato e grazioso (08:19)
13. IV. Allegro vivace (03:23)
CD9
SONATA No.9 in A major, Op.47 'Kreutzer'
01. I. Adagio sostenuto-Presto (13:52)
02. II. Andante con Variazioni (16:55)
03. III. Finale: Presto (08:57)
SONATA No.1 in D major, Op.12 No.1
04. I. Allegro con brio (09:23)
05. II. Tema con Variazioni: Andante con moto (06:52)
06. III. Rondo: Allegro (05:07)
SONATA No.2 in A major, Op.12 No.2
07. I. Allegro vivace (06:54)
08. II. Andante piu tosto Allegretto (04:53)
09. III. Allegro piacevole (05:10)
CD10
SONATA No.10 in G major, Op.96
01. I. Allegro moderato (10:15)
02. II. Adagio espressivo (06:37)
03. III. Scherzo: Allegro (01:51)
04. IV. Poco Allegretto (09:33)
SONATA No.6 in A major, Op.30 No.1
05. I. Allegro (07:34)
06. II. Adagio (07:35)
07. III. Allegretto con Variazioni (08:23)
SONATA No.7 in C major, Op 30 No.2
08. I. Allegro con Brio (07:42)
09. II. Adagio cantabile (09:31)
10. III. Scherzo: Allegro (03:09)
11. IV. Finale: Allegro (05:06)-

LOG CD08:

Exact Audio Copy V1.0 beta 3 from 29. August 2011
EAC extraction logfile from 22. October 2015, 13:02
Jos van Immerseel - Jaap Schröder / Beethoven - Sonatas for Piano and Violin CD1
Used drive : PIONEER BD-RW BDR-207M Adapter: 0 ID: 0
Read mode : Secure
Utilize accurate stream : Yes
Defeat audio cache : Yes
Make use of C2 pointers : No
Read offset correction : 667
Overread into Lead-In and Lead-Out : No
Fill up missing offset samples with silence : Yes
Delete leading and trailing silent blocks : No
Null samples used in CRC calculations : Yes
Used interface : Native Win32 interface for Win NT & 2000
Used output format : User Defined Encoder
Selected bitrate : 128 kBit/s
Quality : High
Add ID3 tag : No
Command line compressor : C:\Program Files\Exact Audio Copy\Flac\flac.exe
Additional command line options : -V -8 -T "Date=%year%" -T "Genre=%genre%" %source%
TOC of the extracted CD
Track | Start | Length | Start sector | End sector
---------------------------------------------------------
1 | 0:00.33 | 9:26.05 | 33 | 42487
2 | 9:26.38 | 5:54.62 | 42488 | 69099
3 | 15:21.25 | 1:17.58 | 69100 | 74932
4 | 16:39.08 | 6:23.25 | 74933 | 103682
5 | 23:02.33 | 5:10.52 | 103683 | 126984
6 | 28:13.10 | 7:19.15 | 126985 | 159924
7 | 35:32.25 | 5:30.08 | 159925 | 184682
8 | 41:02.33 | 8:09.22 | 184683 | 221379
9 | 49:11.55 | 6:52.58 | 221380 | 252337
10 | 56:04.38 | 4:27.70 | 252338 | 272432
11 | 60:32.33 | 6:30.30 | 272433 | 301712
12 | 67:02.63 | 8:19.52 | 301713 | 339189
13 | 75:22.40 | 3:23.25 | 339190 | 354439
Range status and errors
Selected range
Filename C:\Program Files\Exact Audio Copy\Flac\Beethoven - Sonatas for Piano and Violin CD1.wav
Peak level 95.5 %
Extraction speed 8.0 X
Range quality 100.0 %
Test CRC 0EF309A7
Copy CRC 0EF309A7
Copy OK
No errors occurred
End of status report
==== Log checksum 24E4B3D9FEFFCCF0A14608D52F5BF451493BF2556A82D3EC4C14F62D28F2DCAD ====

LOG CD09:

Exact Audio Copy V1.0 beta 3 from 29. August 2011
EAC extraction logfile from 22. October 2015, 13:36
Jos van Immerseel - Jaap Schröder / Beethoven - Sonatas for Piano and Violin CD2
Used drive : PIONEER BD-RW BDR-207M Adapter: 0 ID: 0
Read mode : Secure
Utilize accurate stream : Yes
Defeat audio cache : Yes
Make use of C2 pointers : No
Read offset correction : 667
Overread into Lead-In and Lead-Out : No
Fill up missing offset samples with silence : Yes
Delete leading and trailing silent blocks : No
Null samples used in CRC calculations : Yes
Used interface : Native Win32 interface for Win NT & 2000
Used output format : User Defined Encoder
Selected bitrate : 128 kBit/s
Quality : High
Add ID3 tag : No
Command line compressor : C:\Program Files\Exact Audio Copy\Flac\flac.exe
Additional command line options : -V -8 -T "Date=%year%" -T "Genre=%genre%" %source%
TOC of the extracted CD
Track | Start | Length | Start sector | End sector
---------------------------------------------------------
1 | 0:00.33 | 13:52.60 | 33 | 62492
2 | 13:53.18 | 16:55.22 | 62493 | 138639
3 | 30:48.40 | 8:57.68 | 138640 | 178982
4 | 39:46.33 | 9:23.57 | 178983 | 221264
5 | 49:10.15 | 6:52.00 | 221265 | 252164
6 | 56:02.15 | 5:07.18 | 252165 | 275207
7 | 61:09.33 | 6:54.52 | 275208 | 306309
8 | 68:04.10 | 4:53.53 | 306310 | 328337
9 | 72:57.63 | 5:09.72 | 328338 | 351584
Range status and errors
Selected range
Filename C:\Program Files\Exact Audio Copy\Flac\Beethoven - Sonatas for Piano and Violin CD2.wav
Peak level 91.1 %
Extraction speed 8.0 X
Range quality 100.0 %
Test CRC 607A111C
Copy CRC 607A111C
Copy OK
No errors occurred
End of status report
==== Log checksum CB4FCCE5A11BB704C3CE151EB84FBD46B8FA14B3BED1E693FFB2FEFC2D0C90DE ====

LOG CD10:

Exact Audio Copy V1.0 beta 3 from 29. August 2011
EAC extraction logfile from 22. October 2015, 14:02
Jos van Immerseel, Jaap Schröder / Beethoven - Sonatas for Piano and Violin CD3
Used drive : PIONEER BD-RW BDR-207M Adapter: 0 ID: 0
Read mode : Secure
Utilize accurate stream : Yes
Defeat audio cache : Yes
Make use of C2 pointers : No
Read offset correction : 667
Overread into Lead-In and Lead-Out : No
Fill up missing offset samples with silence : Yes
Delete leading and trailing silent blocks : No
Null samples used in CRC calculations : Yes
Used interface : Native Win32 interface for Win NT & 2000
Used output format : User Defined Encoder
Selected bitrate : 128 kBit/s
Quality : High
Add ID3 tag : No
Command line compressor : C:\Program Files\Exact Audio Copy\Flac\flac.exe
Additional command line options : -V -8 -T "Date=%year%" -T "Genre=%genre%" %source%
TOC of the extracted CD
Track | Start | Length | Start sector | End sector
---------------------------------------------------------
1 | 0:00.33 | 10:15.37 | 33 | 46194
2 | 10:15.70 | 6:37.65 | 46195 | 76034
3 | 16:53.60 | 1:51.23 | 76035 | 84382
4 | 18:45.08 | 9:33.25 | 84383 | 127382
5 | 28:18.33 | 7:34.10 | 127383 | 161442
6 | 35:52.43 | 7:35.70 | 161443 | 195637
7 | 43:28.38 | 8:23.70 | 195638 | 233432
8 | 51:52.33 | 7:42.30 | 233433 | 268112
9 | 59:34.63 | 9:31.37 | 268113 | 310974
10 | 69:06.25 | 3:09.35 | 310975 | 325184
11 | 72:15.60 | 5:06.48 | 325185 | 348182
Range status and errors
Selected range
Filename C:\Program Files\Exact Audio Copy\Flac\Beethoven - Sonatas for Piano and Violin CD3.wav
Peak level 95.2 %
Extraction speed 8.0 X
Range quality 100.0 %
Test CRC 5A105962
Copy CRC 5A105962
Copy OK
No errors occurred
End of status report
==== Log checksum 5F5E7396BB5DD24899D347DE0E77AC33E11E287B0C1DB4E1562DA337164F7876 ====

CD11: Beethoven - Choral Fantasy; Liszt - Beethoven Cantata [46.00]:

Исполнители:
Diana Damrau, soprano
Jörg Dürmüller, tenor
Georg Zeppenfeld, bass
Paul Komen, harpsichord
Kölner Kantorei
Cappella Coloniensis des WDR
Direction - Bruno Well
Треклист:
Liszt
Cantate zur Inauguration des Beethoven-Monuments 1845:
01. I. Maestoso (06:26)
02. II. Allegro deciso (02:47)
03. III. Andante mesto (08:24)
04. IV. Andante religioso (10:04)
Beethoven
05. Fantasie fur Klavier, Chor und Orchester c-moll, op. 80 (18:15)-

LOG CD11:

Exact Audio Copy V1.0 beta 3 from 29. August 2011
EAC extraction logfile from 22. October 2015, 14:29
Cappella Coloniensis, Kölner Kanotrei - Bruno Weil / Beethoven - Choral Fantasy, Liszt - Beethoven Cantata
Used drive : PIONEER BD-RW BDR-207M Adapter: 0 ID: 0
Read mode : Secure
Utilize accurate stream : Yes
Defeat audio cache : Yes
Make use of C2 pointers : No
Read offset correction : 667
Overread into Lead-In and Lead-Out : No
Fill up missing offset samples with silence : Yes
Delete leading and trailing silent blocks : No
Null samples used in CRC calculations : Yes
Used interface : Native Win32 interface for Win NT & 2000
Used output format : User Defined Encoder
Selected bitrate : 128 kBit/s
Quality : High
Add ID3 tag : No
Command line compressor : C:\Program Files\Exact Audio Copy\Flac\flac.exe
Additional command line options : -V -8 -T "Date=%year%" -T "Genre=%genre%" %source%
TOC of the extracted CD
Track | Start | Length | Start sector | End sector
---------------------------------------------------------
1 | 0:00.00 | 6:26.55 | 0 | 29004
2 | 6:26.55 | 2:47.20 | 29005 | 41549
3 | 9:14.00 | 8:24.00 | 41550 | 79349
4 | 17:38.00 | 10:04.22 | 79350 | 124671
5 | 27:42.22 | 18:15.35 | 124672 | 206831
Range status and errors
Selected range
Filename C:\Program Files\Exact Audio Copy\Flac\Beethoven - Choral Fantasy, Liszt - Beethoven Cantata.wav
Peak level 98.8 %
Extraction speed 6.7 X
Range quality 100.0 %
Test CRC 3A505E96
Copy CRC 3A505E96
Copy OK
No errors occurred
End of status report
==== Log checksum EAB718A58A1389F93152C6407541CF6AD45194CB66CD4C904FC0692EF64D7659 ====

CD12: Boccherini - String Quintets Op.11, Nos. 4-6 [66.50]

Исполнители:
Smithsonian Chamber Players:
Marilyn McDonald, violin
Jorie Garrigue, violin
Anthony Martin, viola
Anner Bylsma, violoncello
Kenneth Slowik, violoncello
Треклист:
Quintet in E major, G.275:
01. I. Amoroso (04:23)
02. II. Allegro e con spirito (09:32)
03. III. Minuetto (03:56)
04. IV. Rondeau: Andante (06:58)
Quintet in F minor, G.274:
05. I. Larghetto (04:59)
06. II. Vivace (07:35)
07. III. Minuetto (04:03)
08. IV. Presto (04:21)
Quintet in D major, G.276 (dello L'uccelliera):
09. I. Adagio assai - Allegro giusto (09:59)
10. II. Pastori ed i Cacciatori (01:45)
11. III. Tempo di Minuetto - Allegro giusto (07:13)-

LOG CD12:

Exact Audio Copy V1.0 beta 3 from 29. August 2011
EAC extraction logfile from 22. October 2015, 14:57
Smithsonian Chamber Players / Boccherini - String Quintets Op.11, Nos. 4-6
Used drive : PIONEER BD-RW BDR-207M Adapter: 0 ID: 0
Read mode : Secure
Utilize accurate stream : Yes
Defeat audio cache : Yes
Make use of C2 pointers : No
Read offset correction : 667
Overread into Lead-In and Lead-Out : No
Fill up missing offset samples with silence : Yes
Delete leading and trailing silent blocks : No
Null samples used in CRC calculations : Yes
Used interface : Native Win32 interface for Win NT & 2000
Used output format : User Defined Encoder
Selected bitrate : 128 kBit/s
Quality : High
Add ID3 tag : No
Command line compressor : C:\Program Files\Exact Audio Copy\Flac\flac.exe
Additional command line options : -V -8 -T "Date=%year%" -T "Genre=%genre%" %source%
TOC of the extracted CD
Track | Start | Length | Start sector | End sector
---------------------------------------------------------
1 | 0:00.32 | 4:23.48 | 32 | 19804
2 | 4:24.05 | 9:32.72 | 19805 | 62776
3 | 13:57.02 | 3:56.73 | 62777 | 80549
4 | 17:54.00 | 6:58.40 | 80550 | 111939
5 | 24:52.40 | 4:59.45 | 111940 | 134409
6 | 29:52.10 | 7:35.67 | 134410 | 168601
7 | 37:28.02 | 4:03.03 | 168602 | 186829
8 | 41:31.05 | 4:21.72 | 186830 | 206476
9 | 45:53.02 | 9:59.13 | 206477 | 251414
10 | 55:52.15 | 1:45.47 | 251415 | 259336
11 | 57:37.62 | 7:12.70 | 259337 | 291806
Range status and errors
Selected range
Filename C:\Program Files\Exact Audio Copy\Flac\Boccherini - String Quintets Op.11, Nos. 4-6.wav
Peak level 98.9 %
Extraction speed 7.2 X
Range quality 99.9 %
Test CRC 6BD8A251
Copy CRC 6BD8A251
Copy OK
No errors occurred
End of status report
==== Log checksum 168D58FA0F94B4172278BB5188D6926C24A5B26638363BE0862AE01FEB17DDD7 ====

CD13: Codex Engelberg 314 [59.54]

Исполнители:
Dominique Vellard, Emmanuel Bonnardot, Gerd Türk, singer
Choralensemble der Schola Cantorum Basiliensis
Треклист:
01. Inter Natos Mulierum - O Johannes Doce Nos (02:32)
02. Hertz Vnd Sinne Muege Dich (04:13)
03. Alleluia, V. O Maria Rubens Rosa (03:24)
04. Unicornis Captivatur (03:46)
05. Vrot Uch Alle Geloubigu Lute Mit Schalle (03:18)
06. Ad Decus Ecclesie - Lecto Libri Apocalipsis (04:43)
07. O Maria Rubens Rosa Mater (03:13)
08. Kyrie Fons Bonitatis (04:02)
09. Veni Sancte Spritus Illustra Cecam Mentem (02:27)
10. Salve Pater Nominum - Exaudi Nos (02:29)
11. Procedentem Sponsum De Thalamo (01:19)
12. Illibata Virgo Casta - Egregia Sponsa Cristi Maria (02:09)
13. Alleluia, V. Inclite Dux Benedicte - Benedicte Merita (05:06)
14. Dominus Vobiscum - Sequentia Sancti Ewangelii Secundum Lucam - In Illo Tempor... (04:35)
15. Media Vita In Morte - Ach Homo Perpende Fragilis (04:05)
16. Alma Redemptoris Mater - Marie Virginis Fecundat Viscera (03:43)
17. Lobt All Zungen Des Eren Riches Gottes (02:55)
18. Congaudeat Turba Fidelium (01:47)-

LOG CD13:

Exact Audio Copy V1.0 beta 3 from 29. August 2011
EAC extraction logfile from 22. October 2015, 15:19
Schola Cantorum Basiliensis / Codex Engelberg 314
Used drive : PIONEER BD-RW BDR-207M Adapter: 0 ID: 0
Read mode : Secure
Utilize accurate stream : Yes
Defeat audio cache : Yes
Make use of C2 pointers : No
Read offset correction : 667
Overread into Lead-In and Lead-Out : No
Fill up missing offset samples with silence : Yes
Delete leading and trailing silent blocks : No
Null samples used in CRC calculations : Yes
Used interface : Native Win32 interface for Win NT & 2000
Used output format : User Defined Encoder
Selected bitrate : 128 kBit/s
Quality : High
Add ID3 tag : No
Command line compressor : C:\Program Files\Exact Audio Copy\Flac\flac.exe
Additional command line options : -V -8 -T "Date=%year%" -T "Genre=%genre%" %source%
TOC of the extracted CD
Track | Start | Length | Start sector | End sector
---------------------------------------------------------
1 | 0:00.00 | 2:32.40 | 0 | 11439
2 | 2:32.40 | 4:13.45 | 11440 | 30459
3 | 6:46.10 | 3:24.13 | 30460 | 45772
4 | 10:10.23 | 3:46.62 | 45773 | 62784
5 | 13:57.10 | 3:18.03 | 62785 | 77637
6 | 17:15.13 | 4:43.40 | 77638 | 98902
7 | 21:58.53 | 3:13.30 | 98903 | 113407
8 | 25:12.08 | 4:02.50 | 113408 | 131607
9 | 29:14.58 | 2:27.25 | 131608 | 142657
10 | 31:42.08 | 2:29.45 | 142658 | 153877
11 | 34:11.53 | 1:19.10 | 153878 | 159812
12 | 35:30.63 | 2:09.70 | 159813 | 169557
13 | 37:40.58 | 5:06.72 | 169558 | 192579
14 | 42:47.55 | 4:35.53 | 192580 | 213257
15 | 47:23.33 | 4:05.15 | 213258 | 231647
16 | 51:28.48 | 3:43.62 | 231648 | 248434
17 | 55:12.35 | 2:55.30 | 248435 | 261589
18 | 58:07.65 | 1:47.03 | 261590 | 269617
Range status and errors
Selected range
Filename C:\Program Files\Exact Audio Copy\Flac\Codex Engelberg 314.wav
Peak level 85.4 %
Extraction speed 7.0 X
Range quality 99.9 %
Test CRC 455276CE
Copy CRC 455276CE
Copy OK
No errors occurred
End of status report
==== Log checksum 731F753C1E5DA85BBAE4AC6B9AE6A40BFBA4B6AF3C12AB184E659B91ECDA5588 ====

CD14: Corelli - Concerti Grossi Op.6 Nos.1-6 [68.32]

Исполнители:
La Petite Bande
Direction - Sigiswald Kuijken
Треклист:
Concerto Grosso in D major, Op.6 No.1:
01. I. Largo. Allegro. Adagio. Allegro. Ad... (05:16)
02. II. Largo (02:43)
03. III. Allegro. Adagio (02:00)
04. IV. Allegro (02:21)
Concerto Grosso in F major, Op.6 No.2:
05. I. Vivace. Allegro. Adagio. Vivace. Al... (04:26)
06. II. Allegro. Adagio (01:58)
07. III. Grave. Andante largo (01:56)
08. IV. Allegro (02:13)
Concerto Grosso in C minor, Op.6 No.3:
09. I. Largo (02:15)
10. II. Allegro. Adagio (01:54)
11. III. Grave. Vivace (04:21)
12. IV. Allegro (02:43)
Concerto Grosso in D major, Op.6 No.4:
13. I. Adagio. Allegro (03:42)
14. II. Adagio. Vivace (03:08)
15. III. Allegro. Allegro (03:48)
Concerto Grosso in B-flat major, Op.6 No.5:
16. I. Adagio. Allegro (03:33)
17. II Adagio (01:41)
18. III. Allegro (02:19)
19. IV. Largo. Allegro (03:21)
Concerto Grosso in F major, Op.6 No.6:
20. I. Adagio. Allegro (04:02)
21. II. Largo. Vivace (05:11)
22. III. Allegro (03:32)-

LOG CD14:

Exact Audio Copy V1.0 beta 3 from 29. August 2011
EAC extraction logfile from 22. October 2015, 15:49
La Petite Bande - Sigiswald Kuijken / Corelli - Concerti Grossi Op.6 Nos.1-6
Used drive : PIONEER BD-RW BDR-207M Adapter: 0 ID: 0
Read mode : Secure
Utilize accurate stream : Yes
Defeat audio cache : Yes
Make use of C2 pointers : No
Read offset correction : 667
Overread into Lead-In and Lead-Out : No
Fill up missing offset samples with silence : Yes
Delete leading and trailing silent blocks : No
Null samples used in CRC calculations : Yes
Used interface : Native Win32 interface for Win NT & 2000
Used output format : User Defined Encoder
Selected bitrate : 128 kBit/s
Quality : High
Add ID3 tag : No
Command line compressor : C:\Program Files\Exact Audio Copy\Flac\flac.exe
Additional command line options : -V -8 -T "Date=%year%" -T "Genre=%genre%" %source%
TOC of the extracted CD
Track | Start | Length | Start sector | End sector
---------------------------------------------------------
1 | 0:00.32 | 5:16.25 | 32 | 23756
2 | 5:16.57 | 2:43.25 | 23757 | 36006
3 | 8:00.07 | 2:00.13 | 36007 | 45019
4 | 10:00.20 | 2:21.17 | 45020 | 55611
5 | 12:21.37 | 4:26.08 | 55612 | 75569
6 | 16:47.45 | 1:58.37 | 75570 | 84456
7 | 18:46.07 | 1:56.45 | 84457 | 93201
8 | 20:42.52 | 2:13.58 | 93202 | 103234
9 | 22:56.35 | 2:15.37 | 103235 | 113396
10 | 25:11.72 | 1:54.43 | 113397 | 121989
11 | 27:06.40 | 4:21.12 | 121990 | 141576
12 | 31:27.52 | 2:43.55 | 141577 | 153856
13 | 34:11.32 | 3:42.58 | 153857 | 170564
14 | 37:54.15 | 3:08.10 | 170565 | 184674
15 | 41:02.25 | 3:48.70 | 184675 | 201844
16 | 44:51.20 | 3:33.40 | 201845 | 217859
17 | 48:24.60 | 1:41.35 | 217860 | 225469
18 | 50:06.20 | 2:19.05 | 225470 | 235899
19 | 52:25.25 | 3:21.15 | 235900 | 250989
20 | 55:46.40 | 4:02.05 | 250990 | 269144
21 | 59:48.45 | 5:11.72 | 269145 | 292541
22 | 65:00.42 | 3:32.05 | 292542 | 308446
Range status and errors
Selected range
Filename C:\Program Files\Exact Audio Copy\Flac\Corelli - Concerti Grossi Op.6 Nos.1-6.wav
Peak level 100.0 %
Extraction speed 7.2 X
Range quality 100.0 %
Test CRC 420B7AA9
Copy CRC 420B7AA9
Copy OK
No errors occurred
End of status report
==== Log checksum 6CCC587D24548B847899E0F65F1C155D3E956E22FDF0AAE97763B51733EBDC2F ====

CD15: Handel - Dixit Dominus; Caldara - Missa Dolorosa [63.07]

Исполнители:
Balthasar-Neumann-Chor
Balthasar-Neumann-Ensemble
Direction - Thomas Hengelbrock
Треклист:
George Frideric Handel
Dixit Dominus, HWV 232:
01. I. Dixit Dominus (05:04)
02. II. Virgam virtutis tuae (02:26)
03. III. Tecum principium (02:53)
04. IV. Juravit Dominus (02:14)
05. V. Tu es sacerdos in aetertum (01:25)
06. VI. Dominus a dextris tuis (06:37)
07. VII. De torrente in via bibet (03:31)
08. VIII. Gloria Patri, et Filio (06:02)
Antonio Caldara
Missa dolorosa:
09. I. Kyrie eleison (01:49)
10. II. Christe eleison (01:44)
11. III. Kyrie eleison (01:37)
12. IV. Gloria in excelsis Deo (02:04)
13. V. Domine Deus (01:22)
14. VI. Domine Fili (02:08)
15. VII. Qui tollis peccata mundi (02:20)
16. VIII. Quoniam tu solus Sanctus (01:51)
17. IX. Cum Sancto Spiritu (00:56)
18. X. Credo in unum Deum (01:48)
19. XI. Crucifixus (01:11)
20. XII. Et resurrexit (01:19)
21. XIII. Et vitam venturi saeculi (01:07)
22. XIV. Sanctus (00:57)
23. XV. Benedictus (01:45)
24. XVI. Agnus Dei (01:36)
25. XVII. Dona nobis pacem (01:37)
26. Crucifixus a 16 voci (05:33)-

LOG CD15:

Exact Audio Copy V1.0 beta 3 from 29. August 2011
EAC extraction logfile from 28. October 2015, 14:56
Thomas Hengelbrock - Balthasar-Neumann-Chor & Balthasar-Neumann-Ensemble / Handel - Dixit Dominus; Caldara - Missa Dolorosa
Used drive : PIONEER BD-RW BDR-207M Adapter: 0 ID: 0
Read mode : Secure
Utilize accurate stream : Yes
Defeat audio cache : Yes
Make use of C2 pointers : No
Read offset correction : 667
Overread into Lead-In and Lead-Out : No
Fill up missing offset samples with silence : Yes
Delete leading and trailing silent blocks : No
Null samples used in CRC calculations : Yes
Used interface : Native Win32 interface for Win NT & 2000
Used output format : User Defined Encoder
Selected bitrate : 128 kBit/s
Quality : High
Add ID3 tag : No
Command line compressor : C:\Program Files\Exact Audio Copy\Flac\flac.exe
Additional command line options : -V -8 -T "Date=%year%" -T "Genre=%genre%" %source%
TOC of the extracted CD
Track | Start | Length | Start sector | End sector
---------------------------------------------------------
1 | 0:00.00 | 5:04.21 | 0 | 22820
2 | 5:04.21 | 2:26.48 | 22821 | 33818
3 | 7:30.69 | 2:53.30 | 33819 | 46823
4 | 10:24.24 | 2:14.14 | 46824 | 56887
5 | 12:38.38 | 1:25.12 | 56888 | 63274
6 | 14:03.50 | 6:37.01 | 63275 | 93050
7 | 20:40.51 | 3:31.47 | 93051 | 108922
8 | 24:12.23 | 6:02.13 | 108923 | 136085
9 | 30:14.36 | 1:49.40 | 136086 | 144300
10 | 32:04.01 | 1:44.05 | 144301 | 152105
11 | 33:48.06 | 1:37.05 | 152106 | 159385
12 | 35:25.11 | 2:04.38 | 159386 | 168723
13 | 37:29.49 | 1:22.68 | 168724 | 174941
14 | 38:52.42 | 2:08.66 | 174942 | 184607
15 | 41:01.33 | 2:20.46 | 184608 | 195153
16 | 43:22.04 | 1:51.45 | 195154 | 203523
17 | 45:13.49 | 0:56.36 | 203524 | 207759
18 | 46:10.10 | 1:48.64 | 207760 | 215923
19 | 47:58.74 | 1:11.63 | 215924 | 221311
20 | 49:10.62 | 1:19.71 | 221312 | 227307
21 | 50:30.58 | 1:07.71 | 227308 | 232403
22 | 51:38.54 | 0:57.24 | 232404 | 236702
23 | 52:36.03 | 1:45.06 | 236703 | 244583
24 | 54:21.09 | 1:36.59 | 244584 | 251842
25 | 55:57.68 | 1:37.59 | 251843 | 259176
26 | 57:35.52 | 5:33.60 | 259177 | 284211
Range status and errors
Selected range
Filename C:\Program Files\Exact Audio Copy\Flac\Handel - Dixit Dominus; Caldara - Missa Dolorosa.wav
Peak level 88.4 %
Extraction speed 7.1 X
Range quality 99.9 %
Test CRC B748B499
Copy CRC B748B499
Copy OK
No errors occurred
End of status report
==== Log checksum DC090EA5D9FEF5608E2D1A088432164807A26709128F539681E81CA211F1C758 ====

CD16: The Eton Choirbook [69.25]

Исполнители:
Huelgas Ensemble
Direction - Paul Van Nevel
Треклист:
Johannes Sutton (fl. 1476-1479)
01. Salve Regina a 7 (ECB 22) (15:43)
William Horewud (-1484)
02. Magnificat a 5 (ECB 71) (11:45)
Edmundus Sturton (fl. beg. 16th)
03. Gaude Virgo Mater Christi a 6 (ECB 10) (13:00)
Johannes Browne (fl. 1480-1505)
04. Stabat Mater a 6 (ECB 5) (13:47)
Robertus Wylkynson (1475-after 1514)
05. Salve Regina a 9 (ECB 15) (15:02)-

LOG CD16:

Exact Audio Copy V1.0 beta 3 from 29. August 2011
EAC extraction logfile from 28. October 2015, 15:21
Huelgas Ensemble - Paul van Nevel / The Eton Choirbook
Used drive : PIONEER BD-RW BDR-207M Adapter: 0 ID: 0
Read mode : Secure
Utilize accurate stream : Yes
Defeat audio cache : Yes
Make use of C2 pointers : No
Read offset correction : 667
Overread into Lead-In and Lead-Out : No
Fill up missing offset samples with silence : Yes
Delete leading and trailing silent blocks : No
Null samples used in CRC calculations : Yes
Used interface : Native Win32 interface for Win NT & 2000
Used output format : User Defined Encoder
Selected bitrate : 128 kBit/s
Quality : High
Add ID3 tag : No
Command line compressor : C:\Program Files\Exact Audio Copy\Flac\flac.exe
Additional command line options : -V -8 -T "Date=%year%" -T "Genre=%genre%" %source%
TOC of the extracted CD
Track | Start | Length | Start sector | End sector
---------------------------------------------------------
1 | 0:00.00 | 15:43.37 | 0 | 70761
2 | 15:43.37 | 11:45.00 | 70762 | 123636
3 | 27:28.37 | 13:00.00 | 123637 | 182136
4 | 40:28.37 | 13:47.00 | 182137 | 244161
5 | 54:15.37 | 15:02.38 | 244162 | 311849
Range status and errors
Selected range
Filename C:\Program Files\Exact Audio Copy\Flac\The Eton Choirbook.wav
Peak level 98.8 %
Extraction speed 7.3 X
Range quality 99.9 %
Test CRC 1BB8E302
Copy CRC 1BB8E302
Copy OK
No errors occurred
End of status report
==== Log checksum 328297A58123C9721FCAAEFAD05DE6A0E861387A965D64DCBEC291E75922AEA7 ====

CD17: Florilegium Musicale: Vivaldi, Marcello, Quantz, J.Chr. Bach, Fasch [68.01]

Исполнители:
Camerata Köln
Треклист:
Antonio Vivaldi
Concerto in G minor, RV 104 'La notte'
01. I. La notte (Largo) (01:42)
02. II. Fantasmi (Presto - Largo - Presto) (03:00)
03. III. Il sonno (Largo) (02:02)
04. IV. Allegro (02:48)
Alessandro Marcello
Concerto in D minor:
05. I. Andante (04:12)
06. II. Adagio (03:25)
07. III. Allegro (03:25)
Johann Joachim Quantz
Trio in C major:
08. I. Affettuoso (02:45)
09. II. Alla Breve (02:09)
10. III. Larghetto (03:19)
11. IV. Vivace (03:05)
Bach J.Chr.
Quintet in D major, Op.22 No.1:
12. I. Allegro (06:40)
13. II. Andantino (05:26)
14. III. Allegro Assai (05:19)
Johann Friedrich Fasch
Quartet in D minor:
15. I. (Largo) (02:04)
16. II. Allegro (02:03)
17. III. Largo (02:02)
18. IV. Allegro (01:44)
Antonio Vivaldi
Concerto in C major, RV 444:
19. I. Allegro (03:52)
20. II. Largo (04:12)
21. III. Allegro (02:39)-

LOG CD17:

Exact Audio Copy V1.0 beta 3 from 29. August 2011
EAC extraction logfile from 28. October 2015, 15:58
Camerata Köln / Florilegium Musicale - Vivaldi, Marcello, Quantz, J.Chr. Bach, Fasch
Used drive : PIONEER BD-RW BDR-207M Adapter: 0 ID: 0
Read mode : Secure
Utilize accurate stream : Yes
Defeat audio cache : Yes
Make use of C2 pointers : No
Read offset correction : 667
Overread into Lead-In and Lead-Out : No
Fill up missing offset samples with silence : Yes
Delete leading and trailing silent blocks : No
Null samples used in CRC calculations : Yes
Used interface : Native Win32 interface for Win NT & 2000
Used output format : User Defined Encoder
Selected bitrate : 128 kBit/s
Quality : High
Add ID3 tag : No
Command line compressor : C:\Program Files\Exact Audio Copy\Flac\flac.exe
Additional command line options : -V -8 -T "Date=%year%" -T "Genre=%genre%" %source%
TOC of the extracted CD
Track | Start | Length | Start sector | End sector
---------------------------------------------------------
1 | 0:00.00 | 1:42.30 | 0 | 7679
2 | 1:42.30 | 3:00.62 | 7680 | 21241
3 | 4:43.17 | 2:02.08 | 21242 | 30399
4 | 6:45.25 | 2:48.37 | 30400 | 43036
5 | 9:33.62 | 4:12.00 | 43037 | 61936
6 | 13:45.62 | 3:25.08 | 61937 | 77319
7 | 17:10.70 | 3:25.67 | 77320 | 92761
8 | 20:36.62 | 2:45.63 | 92762 | 105199
9 | 23:22.50 | 2:09.25 | 105200 | 114899
10 | 25:32.00 | 3:19.00 | 114900 | 129824
11 | 28:51.00 | 3:05.62 | 129825 | 143761
12 | 31:56.62 | 6:40.30 | 143762 | 173791
13 | 38:37.17 | 5:26.30 | 173792 | 198271
14 | 44:03.47 | 5:19.15 | 198272 | 222211
15 | 49:22.62 | 2:04.53 | 222212 | 231564
16 | 51:27.40 | 2:03.17 | 231565 | 240806
17 | 53:30.57 | 2:02.33 | 240807 | 249989
18 | 55:33.15 | 1:44.47 | 249990 | 257836
19 | 57:17.62 | 3:52.00 | 257837 | 275236
20 | 61:09.62 | 4:12.50 | 275237 | 294186
21 | 65:22.37 | 2:39.38 | 294187 | 306149
Range status and errors
Selected range
Filename C:\Program Files\Exact Audio Copy\Flac\Florilegium Musicale - Vivaldi, Marcello, Quantz, J.Chr. Bach, Fasch.wav
Peak level 100.0 %
Extraction speed 7.2 X
Range quality 100.0 %
Test CRC 48117824
Copy CRC 48117824
Copy OK
No errors occurred
End of status report
==== Log checksum 5A12B4E778FEA258BEA77AA466D00E38E29BB5453955109B62A849BC0882B7AB ====

CD18-19: Händel - Der Messias CD18[67.53], CD19[70.34]

Исполнители:
Sharon Rostorf-Zamir, soprano
Maria Riccarda Wesseling, alto
Kobie van Rensburg, tenor
Raimund Nolte, bass
Dresdner Kammerchor
Lautten Compagney
Direction - Wolfgang Katschner
Треклист:
CD1
01. Erster Teil. Sinfonie (02:47)
02. Rezitativ: Trostet, trostet mein Zion, spricht euer Gott (03:23)
03. Arie: Alle Thale werden erhaben! (03:24)
04. Chor: Denn die Hoheit des Herrn wird offenbart (02:30)
05. Rezitativ: So spricht der Herr, Gott Zebaoth (01:21)
06. Arie: Doch wer mag ertragen den Tag, wenn er kommet? (04:18)
07. Chor: Und er wird reinigen die Sohne Levi (02:34)
08. Rezitativ: Sieh da! Eine Jungfrau empfangt! (00:29)
09. Arie: O du, der bringet Frohlocken in Zion (05:54)
10. Rezitativ: Schau umher! Dunkel bedecket die Welt (01:47)
11. Arie: Die Volker, die wandeln im Dunkel (03:41)
12. Chor: Denn es ist uns ein Kind gebor'n (04:07)
13. Pifa (02:34)
14. Rezitativ: Es waren Hirten beisammen auf der Flur (00:18)
15. Rezitativ: Als schnell der Engel des Herrn zu ihnen trat (00:16)
16. Rezitativ: Alsdann der Engel zu ihnen sprach: Friede! (00:36)
17. Rezitativ: Und alsobald war da bei dem Engel (00:16)
18. Chor: Ehre sei Gott! Ehre sei Gott in den Hohen! (01:55)
19. Arie: Erfreu dich machtig, o Tochter Zion (04:24)
20. Rezitativ: Dann wird das Auge des Blinden sehend sein (00:36)
21. Duett: Er wird Hirte sein seiner Schafe (05:01)
22. Chor: Sein Joch ist selig, sein Ragen ist leicht (02:28)
23. Zweiter Teil. Chor: Sieh da ist Gottes Lamm! (02:45)
24. Arie: Er war verschmahet und verworfen, von Menschen (09:45)
25. Chor: Wahrlich, wahrlich! Er trug unser Leid (01:55)
CD2
01. Chor: Durch seine Wunden sind wir geheilet (01:50)
02. Chor: Wir gingen all' in Irren umher (03:52)
03. Rezitativ: Und die ihn sahen, spotteten sein, verhohneten ihn (00:42)
04. Chor: Er trauete Gott! dass der konnt' erlosen ihn (02:26)
05. Rezitativ: Deine Schmach zerbrach sein Herz (01:55)
06. Arioso: Schau an und sieh! ob irgend sei ein Kummer (01:35)
07. Rezitativ: Man riss ihn aus dem Lande der Lebenden (00:19)
08. Arie: Doch du liessest nicht seine Seel' in der Holl' (02:12)
09. Chor: Hebet das Haupt, o ihr Tore! Eroffnet euch weit (03:09)
10. Rezitativ: Denn zu welchem Engel sprach Gott Jehovah (00:21)
11. Chor: Lasst alle Engel des Herrn feiern ihn! (01:30)
12. Arie: Du bist gestiegen hoch! (03:16)
13. Chor: Der Herr gab sein Wort (01:12)
14. Arie: Wie lieblich ist der Boten Tritt! (01:52)
15. Arioso: Ihr Ruf erging in alles Land! (01:16)
16. Arie: Wie, dass die Volker so wutend ergrimmen zusammen (02:53)
17. Chor: Lasst uns brechen ihre Bande. Ihre Band' entzwei! (01:53)
18. Rezitativ: Er, der wohnet im Himmerl, er lachet vor Wut (00:17)
19. Arie: Sie zerberechen soll dein Eisenpanzer (01:55)
20. Chor: Hallelujah! Hallelujah! (03:50)
21. Dritter Teil. Arie: Ich weiss, dass mein Erloser lebet (06:17)
22. Chor: Denn durch Einen kam der Tod (02:07)
23. Rezitativ: Vernehmet! Ich versprech' ein Geheimnis (00:41)
24. Arie: Es schallt die Trommet' (08:45)
25. Rezitativ: Dann wird erfullet sein das Wort des Ewigen (00:22)
26. Duett: O Tod, wo ist dein Pfeil? (01:01)
27. Chor: Drum Dank sei Gott! (02:01)
28. Arie: Wenn Gott ist mit uns, wer ist entgegen? (04:22)
29. Chor: Wurdig ist das Lamm, das da starb (06:31)-

LOG CD18:

Exact Audio Copy V1.0 beta 3 from 29. August 2011
EAC extraction logfile from 3. November 2015, 10:44
Dresdner Kammerchor und Lautten Compagney & Wolfgang Katschner / Handel - Der Messias CD1
Used drive : PIONEER BD-RW BDR-207M Adapter: 0 ID: 0
Read mode : Secure
Utilize accurate stream : Yes
Defeat audio cache : Yes
Make use of C2 pointers : No
Read offset correction : 667
Overread into Lead-In and Lead-Out : No
Fill up missing offset samples with silence : Yes
Delete leading and trailing silent blocks : No
Null samples used in CRC calculations : Yes
Used interface : Native Win32 interface for Win NT & 2000
Used output format : User Defined Encoder
Selected bitrate : 128 kBit/s
Quality : High
Add ID3 tag : No
Command line compressor : C:\Program Files\Exact Audio Copy\Flac\flac.exe
Additional command line options : -V -8 -T "Date=%year%" -T "Genre=%genre%" %source%
TOC of the extracted CD
Track | Start | Length | Start sector | End sector
---------------------------------------------------------
1 | 0:00.00 | 2:47.40 | 0 | 12564
2 | 2:47.40 | 3:23.19 | 12565 | 27808
3 | 6:10.59 | 3:24.01 | 27809 | 43109
4 | 9:34.60 | 2:30.69 | 43110 | 54428
5 | 12:05.54 | 1:21.64 | 54429 | 60567
6 | 13:27.43 | 4:18.24 | 60568 | 79941
7 | 17:45.67 | 2:34.19 | 79942 | 91510
8 | 20:20.11 | 0:29.69 | 91511 | 93754
9 | 20:50.05 | 5:54.54 | 93755 | 120358
10 | 26:44.59 | 1:47.43 | 120359 | 128426
11 | 28:32.27 | 3:41.50 | 128427 | 145051
12 | 32:14.02 | 4:07.69 | 145052 | 163645
13 | 36:21.71 | 2:34.30 | 163646 | 175225
14 | 38:56.26 | 0:18.12 | 175226 | 176587
15 | 39:14.38 | 0:16.40 | 176588 | 177827
16 | 39:31.03 | 0:36.40 | 177828 | 180567
17 | 40:07.43 | 0:16.42 | 180568 | 181809
18 | 40:24.10 | 1:55.35 | 181810 | 190469
19 | 42:19.45 | 4:24.65 | 190470 | 210334
20 | 46:44.35 | 0:36.11 | 210335 | 213045
21 | 47:20.46 | 5:01.25 | 213046 | 235645
22 | 52:21.71 | 2:28.64 | 235646 | 246809
23 | 54:50.60 | 2:45.06 | 246810 | 259190
24 | 57:35.66 | 9:45.72 | 259191 | 303137
25 | 67:21.63 | 1:55.19 | 303138 | 311781
Range status and errors
Selected range
Filename C:\Program Files\Exact Audio Copy\Flac\Handel - Der Messias CD1.wav
Peak level 99.9 %
Extraction speed 7.3 X
Range quality 100.0 %
Test CRC 9A33285E
Copy CRC 9A33285E
Copy OK
No errors occurred
End of status report
==== Log checksum 3B47A1449E16A4E06D88FD337652B3925776F79AE852E40B7E19936F6F226D14 ====

LOG CD19:

Exact Audio Copy V1.0 beta 3 from 29. August 2011
EAC extraction logfile from 3. November 2015, 11:18
Dresdner Kammerchor, Lautten Compagney, Wolfgang Katschner / Handel - Der Messias CD2
Used drive : PIONEER BD-RW BDR-207M Adapter: 0 ID: 0
Read mode : Secure
Utilize accurate stream : Yes
Defeat audio cache : Yes
Make use of C2 pointers : No
Read offset correction : 667
Overread into Lead-In and Lead-Out : No
Fill up missing offset samples with silence : Yes
Delete leading and trailing silent blocks : No
Null samples used in CRC calculations : Yes
Used interface : Native Win32 interface for Win NT & 2000
Used output format : User Defined Encoder
Selected bitrate : 128 kBit/s
Quality : High
Add ID3 tag : No
Command line compressor : C:\Program Files\Exact Audio Copy\Flac\flac.exe
Additional command line options : -V -8 -T "Date=%year%" -T "Genre=%genre%" %source%
TOC of the extracted CD
Track | Start | Length | Start sector | End sector
---------------------------------------------------------
1 | 0:00.00 | 1:50.20 | 0 | 8269
2 | 1:50.20 | 3:52.04 | 8270 | 25673
3 | 5:42.24 | 0:42.57 | 25674 | 28880
4 | 6:25.06 | 2:26.07 | 28881 | 39837
5 | 8:51.13 | 1:55.44 | 39838 | 48506
6 | 10:46.57 | 1:35.14 | 48507 | 55645
7 | 12:21.71 | 0:19.13 | 55646 | 57083
8 | 12:41.09 | 2:12.20 | 57084 | 67003
9 | 14:53.29 | 3:09.13 | 67004 | 81191
10 | 18:02.42 | 0:21.48 | 81192 | 82814
11 | 18:24.15 | 1:30.35 | 82815 | 89599
12 | 19:54.50 | 3:16.21 | 89600 | 104320
13 | 23:10.71 | 1:12.14 | 104321 | 109734
14 | 24:23.10 | 1:52.50 | 109735 | 118184
15 | 26:15.60 | 1:16.14 | 118185 | 123898
16 | 27:31.74 | 2:53.74 | 123899 | 136947
17 | 30:25.73 | 1:53.29 | 136948 | 145451
18 | 32:19.27 | 0:17.34 | 145452 | 146760
19 | 32:36.61 | 1:55.27 | 146761 | 155412
20 | 34:32.13 | 3:50.24 | 155413 | 172686
21 | 38:22.37 | 6:17.30 | 172687 | 200991
22 | 44:39.67 | 2:07.51 | 200992 | 210567
23 | 46:47.43 | 0:41.69 | 210568 | 213711
24 | 47:29.37 | 8:45.70 | 213712 | 253156
25 | 56:15.32 | 0:22.20 | 253157 | 254826
26 | 56:37.52 | 1:01.16 | 254827 | 259417
27 | 57:38.68 | 2:01.12 | 259418 | 268504
28 | 59:40.05 | 4:22.34 | 268505 | 288188
29 | 64:02.39 | 6:31.27 | 288189 | 317540
Range status and errors
Selected range
Filename C:\Program Files\Exact Audio Copy\Flac\Handel - Der Messias CD2.wav
Peak level 99.8 %
Extraction speed 7.3 X
Range quality 100.0 %
Test CRC 62293AC4
Copy CRC 62293AC4
Copy OK
No errors occurred
End of status report
==== Log checksum EB925C0309345011AFB248C86D808A7D727B40A723FE64145CEFCD78A91884A6 ====

CD20-21: Händel - Sämtliche Bläsersonaten CD20[63.05], CD21[67.53]

Исполнители:
Camerata Köln
Треклист:
CD1
Sonata in D major for transverse flute
01. Largo (01:48)
02. Allegro (02:07)
03. Adagio (00:56)
04. Allegro (01:49)
Sonata in B flat major for oboe
05. Andante (03:08)
06. Grave (01:29)
07. Allegro (02:00)
Sonata in B minor for transverse flute, Op.1 No.9
08. Largo (02:08)
09. Vivace (01:56)
10. Presto (01:55)
11. Adagio (01:24)
12. Alla breve (01:42)
13. Andante (02:38)
14. A Tempo Di Menuet (01:41)
Sonata in G minor for oboe, Op.1 No.6
15. Larghetto (01:44)
16. Allegro (01:39)
17. Adagio (00:38)
18. Allegro (01:49)
Sonata in E minor for transverse flute, Op.1 No.1b
19. Grave (02:15)
20. Allegro (01:42)
21. Adagio (00:55)
22. Allegro (02:28)
Sonata in C minor for oboe, Op.1 No.8
23. Larghetto (02:03)
24. Allegro (01:43)
25. Adagio (01:46)
26. Allegro (Bourree Angloise) (01:03)
Sonata in G major for transverse flute, Op.1 No.5
27. Adagio (01:50)
28. Allegro (01:40)
29. SAdagio (02:18)
30. Bourree (00:57)
31. Menuetto (01:42)
Sonata in F major for oboe
32. Adagio (01:43)
33. Allegro (01:42)
34. Adagio (02:09)
35. Bourree (00:57)
36. Menuetto (01:26)
CD2
01. Sonate d-moll fuer Blockfloete und Bc (14:27)
02. Sonate B-dur fuer Blockfloete und Bc (05:58)
03. Sonate g-moll fuer Blockfloete und Bc (07:52)
04. Sonate a-moll fuer Blockfloete und Bc (10:32)
05. Sonate C-dur fuer Blockfloete und Bc (10:57)
06. Sonate F-dur fuer Blockfloete und Bc (08:31)
07. Sonate G-dur fuer Blockfloete und Bc (04:33)
08. Trio F-dur fuer 2 Blockfloeten und Bc (05:01)-

LOG CD20:

Exact Audio Copy V1.0 beta 3 from 29. August 2011
EAC extraction logfile from 3. November 2015, 11:57
Camerata Köln / Handel - Sonatas for Wood-Wind Instruments Vol.I
Used drive : PIONEER BD-RW BDR-207M Adapter: 0 ID: 0
Read mode : Secure
Utilize accurate stream : Yes
Defeat audio cache : Yes
Make use of C2 pointers : No
Read offset correction : 667
Overread into Lead-In and Lead-Out : No
Fill up missing offset samples with silence : Yes
Delete leading and trailing silent blocks : No
Null samples used in CRC calculations : Yes
Used interface : Native Win32 interface for Win NT & 2000
Used output format : User Defined Encoder
Selected bitrate : 128 kBit/s
Quality : High
Add ID3 tag : No
Command line compressor : C:\Program Files\Exact Audio Copy\Flac\flac.exe
Additional command line options : -V -8 -T "Date=%year%" -T "Genre=%genre%" %source%
TOC of the extracted CD
Track | Start | Length | Start sector | End sector
---------------------------------------------------------
1 | 0:00.33 | 1:48.52 | 33 | 8184
2 | 1:49.10 | 2:07.30 | 8185 | 17739
3 | 3:56.40 | 0:56.28 | 17740 | 21967
4 | 4:52.68 | 1:49.25 | 21968 | 30167
5 | 6:42.18 | 3:08.30 | 30168 | 44297
6 | 9:50.48 | 1:29.35 | 44298 | 51007
7 | 11:20.08 | 2:00.17 | 51008 | 60024
8 | 13:20.25 | 2:08.48 | 60025 | 69672
9 | 15:28.73 | 1:56.65 | 69673 | 78437
10 | 17:25.63 | 1:55.05 | 78438 | 87067
11 | 19:20.68 | 1:24.40 | 87068 | 93407
12 | 20:45.33 | 1:42.42 | 93408 | 101099
13 | 22:28.00 | 2:38.05 | 101100 | 112954
14 | 25:06.05 | 1:41.48 | 112955 | 120577
15 | 26:47.53 | 1:44.30 | 120578 | 128407
16 | 28:32.08 | 1:39.52 | 128408 | 135884
17 | 30:11.60 | 0:38.35 | 135885 | 138769
18 | 30:50.20 | 1:49.55 | 138770 | 146999
19 | 32:40.00 | 2:15.68 | 147000 | 157192
20 | 34:55.68 | 1:42.15 | 157193 | 164857
21 | 36:38.08 | 0:55.32 | 164858 | 169014
22 | 37:33.40 | 2:28.38 | 169015 | 180152
23 | 40:02.03 | 2:03.47 | 180153 | 189424
24 | 42:05.50 | 1:43.08 | 189425 | 197157
25 | 43:48.58 | 1:46.05 | 197158 | 205112
26 | 45:34.63 | 1:03.02 | 205113 | 209839
27 | 46:37.65 | 1:50.35 | 209840 | 218124
28 | 48:28.25 | 1:40.25 | 218125 | 225649
29 | 50:08.50 | 2:18.25 | 225650 | 236024
30 | 52:27.00 | 0:57.70 | 236025 | 240369
31 | 53:24.70 | 1:42.65 | 240370 | 248084
32 | 55:07.60 | 1:43.03 | 248085 | 255812
33 | 56:50.63 | 1:42.65 | 255813 | 263527
34 | 58:33.53 | 2:09.00 | 263528 | 273202
35 | 60:42.53 | 0:57.17 | 273203 | 277494
36 | 61:39.70 | 1:26.38 | 277495 | 283982
Range status and errors
Selected range
Filename C:\Program Files\Exact Audio Copy\Flac\Handel - Sonatas for Wood-Wind Instruments Vol.I.wav
Peak level 79.1 %
Extraction speed 6.9 X
Range quality 99.9 %
Test CRC 1CCF33A8
Copy CRC 1CCF33A8
Copy OK
No errors occurred
End of status report
==== Log checksum A4A9608C3C3B2636E210DC5D6A46405DB14E10B47CB2D7441F8F3076DCCE57A8 ====

LOG CD21:

Exact Audio Copy V1.0 beta 3 from 29. August 2011
EAC extraction logfile from 3. November 2015, 12:23
Camerata Köln / Handel - Sonatas for Wood-Wind Instruments Vol.II
Used drive : PIONEER BD-RW BDR-207M Adapter: 0 ID: 0
Read mode : Secure
Utilize accurate stream : Yes
Defeat audio cache : Yes
Make use of C2 pointers : No
Read offset correction : 667
Overread into Lead-In and Lead-Out : No
Fill up missing offset samples with silence : Yes
Delete leading and trailing silent blocks : No
Null samples used in CRC calculations : Yes
Used interface : Native Win32 interface for Win NT & 2000
Used output format : User Defined Encoder
Selected bitrate : 128 kBit/s
Quality : High
Add ID3 tag : No
Command line compressor : C:\Program Files\Exact Audio Copy\Flac\flac.exe
Additional command line options : -V -8 -T "Date=%year%" -T "Genre=%genre%" %source%
TOC of the extracted CD
Track | Start | Length | Start sector | End sector
---------------------------------------------------------
1 | 0:00.00 | 14:27.70 | 0 | 65094
2 | 14:27.70 | 5:58.67 | 65095 | 92011
3 | 20:26.62 | 7:52.00 | 92012 | 127411
4 | 28:18.62 | 10:32.65 | 127412 | 174876
5 | 38:51.52 | 10:57.10 | 174877 | 224161
6 | 49:48.62 | 8:31.00 | 224162 | 262486
7 | 58:19.62 | 4:33.00 | 262487 | 282961
8 | 62:52.62 | 5:01.13 | 282962 | 305549
Range status and errors
Selected range
Filename C:\Program Files\Exact Audio Copy\Flac\Handel - Sonatas for Wood-Wind Instruments Vol.II.wav
Peak level 89.5 %
Extraction speed 7.2 X
Range quality 99.9 %
Test CRC 73AC1DA5
Copy CRC 73AC1DA5
Copy OK
No errors occurred
End of status report
==== Log checksum 9F61F31F90FD433135D959FB8B38505349075C7EB6DA9BA851134C6398D775AC ====

CD22: Händel - German Arias, HWV 202-210 'Süße Stille, sanfte quelle' [66.40]

Исполнители:
Nuria Rial, soprano
Austrian Baroque Company
Direction - Michael Oman
Треклист:
01. Aria, HWV 202 'Kunft'ger Zeiten eitler Kummer' (07:02)
02. Aria, HWV 203 'Das zitternde Glanzen der spiegelnden Wellen' (05:24)
03. Aria, HWV 204 'Susser Blumen Ambraflocken' (07:45)
04. Aria, HWV 205 'Susse Stille, sanfte Quelle' (04:53)
05. Aria, HWV 206 'Singe, Seele, Gott zum Preise' (04:44)
06. Aria, HWV 207 'Meine Seele hort im Sehen' (06:09)
07. Aria, HWV 208 'Die ihr aus dunklen Gruften' (04:39)
08. Aria, HWV 209 'In den angenehmen Buschen' (03:21)
09. Aria, HWV 210 'Flammende Rose, Zierde der Erden' (06:08)
Music for the Royal Fireworks, HWV 351:
10. I. Ouverture (07:17)
11. II. Bourree (01:06)
12. III. La Paix (03:55)
13. IV. La Rejouissance (02:24)
14. V. Menuet I (00:51)
15. VI. Menuet II (00:55)-

LOG CD22:

Exact Audio Copy V1.0 beta 3 from 29. August 2011
EAC extraction logfile from 3. November 2015, 12:53
Nuria Rial, Michael Oman, Austrian Baroque Company / Handel - Süsse Stille, sanfte Quelle
Used drive : PIONEER BD-RW BDR-207M Adapter: 0 ID: 0
Read mode : Secure
Utilize accurate stream : Yes
Defeat audio cache : Yes
Make use of C2 pointers : No
Read offset correction : 667
Overread into Lead-In and Lead-Out : No
Fill up missing offset samples with silence : Yes
Delete leading and trailing silent blocks : No
Null samples used in CRC calculations : Yes
Used interface : Native Win32 interface for Win NT & 2000
Used output format : User Defined Encoder
Selected bitrate : 128 kBit/s
Quality : High
Add ID3 tag : No
Command line compressor : C:\Program Files\Exact Audio Copy\Flac\flac.exe
Additional command line options : -V -8 -T "Date=%year%" -T "Genre=%genre%" %source%
TOC of the extracted CD
Track | Start | Length | Start sector | End sector
---------------------------------------------------------
1 | 0:00.00 | 7:02.17 | 0 | 31666
2 | 7:02.17 | 5:24.19 | 31667 | 55985
3 | 12:26.36 | 7:45.38 | 55986 | 90898
4 | 20:11.74 | 4:53.51 | 90899 | 112924
5 | 25:05.50 | 4:44.21 | 112925 | 134245
6 | 29:49.71 | 6:09.11 | 134246 | 161931
7 | 35:59.07 | 4:39.29 | 161932 | 182885
8 | 40:38.36 | 3:21.30 | 182886 | 197990
9 | 43:59.66 | 6:08.54 | 197991 | 225644
10 | 50:08.45 | 7:17.03 | 225645 | 258422
11 | 57:25.48 | 1:06.42 | 258423 | 263414
12 | 58:32.15 | 3:55.24 | 263415 | 281063
13 | 62:27.39 | 2:24.06 | 281064 | 291869
14 | 64:51.45 | 0:51.27 | 291870 | 295721
15 | 65:42.72 | 0:55.36 | 295722 | 299882
Range status and errors
Selected range
Filename C:\Program Files\Exact Audio Copy\Flac\Handel - Süsse Stille, sanfte Quelle.wav
Peak level 100.0 %
Extraction speed 7.2 X
Range quality 100.0 %
Test CRC 5B442FC4
Copy CRC 5B442FC4
Copy OK
No errors occurred
End of status report
==== Log checksum 18DDC29B851489864A468E5B3074108FE6B44F01C32179A5E04349F05DA21EC3 ====

CD23: Händel "Venus & Adonis": Cantatas and Sonatas [75.25]

Исполнители:
Gemma Bertagnolli, soprano
Ensemble Zefiro
Треклист:
Trio Sonata in B-flat major, Op. 2 No. 3, HWV 388:
01. I. Andante (02:42)
02. II. Allegro (02:19)
03. III. Larghetto (03:13)
04. IV. Allegro (03:19)
Cantata, HWV 132b 'Mi palpita il cor':
05. I. Arioso e recitativo 'Mi palpita il ... (02:25)
06. II. Aria 'Ho tanti affani in petto' (05:59)
07. III. Recitativo 'Clori, di te mi lagno' (00:57)
08. IV. Aria. Allegro 'Se un di m'adora la... (03:05)
Trio Sonata in G minor, Op. 2 No. 5, HWV 390a:
09. I. Larghetto (03:00)
10. II. Allegro (02:44)
11. III. Adagio (02:04)
12. IV. Allegro (03:12)
13. Aria, HWV 207 'Meine Seele hort im Sehen' (07:00)
Trio Sonata in G minor, HWV 393:
14. I. Andante (03:30)
15. II. Allegro (02:12)
16. III. Largo (02:28)
17. IV. Allegro (02:15)
Cantata, HWV 85 'Venus and Adonis':
18. I. Recitativo 'Guardate Venere' (01:47)
19. II. Aria 'Caro Adone' (05:33)
20. III. Recitativo 'Cosi, Regina di bellezza' (01:01)
21. IV. Aria 'Trasporti di gioia' (03:17)
Trio Sonata in F major, HWV 392/401:
22. I. Largo (02:34)
23. II. Allegro (02:49)
24. III. Adagio (03:25)
25. IV. Allegro (02:20)-

LOG CD23:

Exact Audio Copy V1.0 beta 3 from 29. August 2011
EAC extraction logfile from 3. November 2015, 13:20
Gemma Bertagnolli - Ensemble Zefiro / Handel - Venus & Adonis
Used drive : PIONEER BD-RW BDR-207M Adapter: 0 ID: 0
Read mode : Secure
Utilize accurate stream : Yes
Defeat audio cache : Yes
Make use of C2 pointers : No
Read offset correction : 667
Overread into Lead-In and Lead-Out : No
Fill up missing offset samples with silence : Yes
Delete leading and trailing silent blocks : No
Null samples used in CRC calculations : Yes
Used interface : Native Win32 interface for Win NT & 2000
Used output format : User Defined Encoder
Selected bitrate : 128 kBit/s
Quality : High
Add ID3 tag : No
Command line compressor : C:\Program Files\Exact Audio Copy\Flac\flac.exe
Additional command line options : -V -8 -T "Date=%year%" -T "Genre=%genre%" %source%
TOC of the extracted CD
Track | Start | Length | Start sector | End sector
---------------------------------------------------------
1 | 0:00.00 | 2:42.40 | 0 | 12189
2 | 2:42.40 | 2:19.46 | 12190 | 22660
3 | 5:02.11 | 3:13.66 | 22661 | 37201
4 | 8:16.02 | 3:19.03 | 37202 | 52129
5 | 11:35.05 | 2:25.38 | 52130 | 63042
6 | 14:00.43 | 5:59.62 | 63043 | 90029
7 | 20:00.30 | 0:57.58 | 90030 | 94362
8 | 20:58.13 | 3:05.48 | 94363 | 108285
9 | 24:03.61 | 3:00.41 | 108286 | 121826
10 | 27:04.27 | 2:44.03 | 121827 | 134129
11 | 29:48.30 | 2:04.28 | 134130 | 143457
12 | 31:52.58 | 3:12.59 | 143458 | 157916
13 | 35:05.42 | 7:00.09 | 157917 | 189425
14 | 42:05.51 | 3:30.44 | 189426 | 205219
15 | 45:36.20 | 2:12.28 | 205220 | 215147
16 | 47:48.48 | 2:28.21 | 215148 | 226268
17 | 50:16.69 | 2:15.06 | 226269 | 236399
18 | 52:32.00 | 1:47.71 | 236400 | 244495
19 | 54:19.71 | 5:33.47 | 244496 | 269517
20 | 59:53.43 | 1:01.55 | 269518 | 274147
21 | 60:55.23 | 3:17.69 | 274148 | 288991
22 | 64:13.17 | 2:34.16 | 288992 | 300557
23 | 66:47.33 | 2:49.44 | 300558 | 313276
24 | 69:37.02 | 3:25.66 | 313277 | 328717
25 | 73:02.68 | 2:20.10 | 328718 | 339227
Range status and errors
Selected range
Filename C:\Program Files\Exact Audio Copy\Flac\Handel - Venus & Adonis.wav
Peak level 100.0 %
Extraction speed 7.7 X
Range quality 100.0 %
Test CRC C928691F
Copy CRC C928691F
Copy OK
No errors occurred
End of status report
==== Log checksum BA2CDA4EA4B9AC3E8802D3458357BC5E35C0A089DC0F143C6BB95420203C3900 ====

CD24: Haydn - Große Orgelmesse; Mozart - Te Deum [50.59]

Исполнители:
Gerhard Kögel, soprano
Wolfgang Drasch, alto
Hartmut Quotschalla, tenor
Ulrich Streckmann, bass
Augsburger Domsingknabenn
Münchner Residenz-Orchester
Rudofl Brauckmann, organ positive
Direction - Reinhard Kammler
Треклист:
Joseph Haydn
Grosse Orgelmesse in Es-Dur Hob.XXII:4:
01. I. Kyrie (05:03)
02. II. Gloria (09:35)
03. III. Credo (12:00)
04. IV. Sanctus (01:58)
05. V. Benedictus (06:54)
06. VI. Agnus Dei (06:28)
Wolfgang Amadeus Mozart
Te Deum in C-Dur K.141:
07. I. Te Deum laudamus (03:25)
08. II. Te ergo quaesumus (00:56)
09. III. Aeterna fac (01:54)
10. IV. In te, Domine, speravi (02:42)-

LOG CD24:

Exact Audio Copy V1.0 beta 3 from 29. August 2011
EAC extraction logfile from 3. November 2015, 13:45
Reinhard Kammler / Haydn - Grosse Orgelmesse, Mozart - Te Deum
Used drive : PIONEER BD-RW BDR-207M Adapter: 0 ID: 0
Read mode : Secure
Utilize accurate stream : Yes
Defeat audio cache : Yes
Make use of C2 pointers : No
Read offset correction : 667
Overread into Lead-In and Lead-Out : No
Fill up missing offset samples with silence : Yes
Delete leading and trailing silent blocks : No
Null samples used in CRC calculations : Yes
Used interface : Native Win32 interface for Win NT & 2000
Used output format : User Defined Encoder
Selected bitrate : 128 kBit/s
Quality : High
Add ID3 tag : No
Command line compressor : C:\Program Files\Exact Audio Copy\Flac\flac.exe
Additional command line options : -V -8 -T "Date=%year%" -T "Genre=%genre%" %source%
TOC of the extracted CD
Track | Start | Length | Start sector | End sector
---------------------------------------------------------
1 | 0:00.32 | 5:03.25 | 32 | 22781
2 | 5:03.57 | 9:35.50 | 22782 | 65956
3 | 14:39.32 | 12:00.50 | 65957 | 120006
4 | 26:40.07 | 1:58.00 | 120007 | 128856
5 | 28:38.07 | 6:54.50 | 128857 | 159956
6 | 35:32.57 | 6:28.25 | 159957 | 189081
7 | 42:01.07 | 3:25.33 | 189082 | 204489
8 | 45:26.40 | 0:56.05 | 204490 | 208694
9 | 46:22.45 | 1:54.42 | 208695 | 217286
10 | 48:17.12 | 2:42.58 | 217287 | 229494
Range status and errors
Selected range
Filename C:\Program Files\Exact Audio Copy\Flac\Haydn - Grosse Orgelmesse, Mozart - Te Deum.wav
Peak level 99.0 %
Extraction speed 6.8 X
Range quality 100.0 %
Test CRC EF1AA423
Copy CRC EF1AA423
Copy OK
No errors occurred
End of status report
==== Log checksum 273F746E0DED01D3F8A2909A187FB025FCDB0743B171DEAE116A6619B73C2D91 ====

CD25: Haydn "L'infedeltà costante" [78.05]

Исполнители:
Anna Bonitatibus, mezzo-soprano
Il Complesso Barocco
Direction - Alan Curtis
Треклист:
La fedelta premiata
01. Sinfonia (03:52)
02. Barbaro conte e questa la merce... (01:32)
03. Dell'amor mio fedele (03:55)
04. Placidi ruscelletti (03:58)
Orlando paladino
05. Sinfonia (00:32)
06. Ad un guardo (03:46)
07. L'isola di Alcina (Gazzaniga) - Sono Alcina, e sono ancora (03:53)
La vera costanza
08. Sinfonia (09:02)
09. Misera, chi m'aiuta... (02:53)
10. Dove fuggo (02:28)
L'infedelta delusa
11. Ho un tumore in un ginocchio (04:58)
12. Trinche vaine allegramente (02:00)
13. La frascatana (Paisiello) - D'una sposa meschinella (05:14)
L'isola disabitata
14. Overtura (07:52)
15. Se non piange un infelice (04:11)
Arianna a Naxos
16. Teseo mio ben! Ove sei? Ove sei tu? (05:32)
17. Dove sei, mio bel tesoro? (04:44)
18. Poco da me lontano (03:52)
19. Ah! che morir vorrei in si fatal momento (03:39)-

LOG CD25:

Exact Audio Copy V1.0 beta 3 from 29. August 2011
EAC extraction logfile from 3. November 2015, 14:11
Anna Bonitatibus - Alan Curtis / Haydn - L'infedelta costante
Used drive : PIONEER BD-RW BDR-207M Adapter: 0 ID: 0
Read mode : Secure
Utilize accurate stream : Yes
Defeat audio cache : Yes
Make use of C2 pointers : No
Read offset correction : 667
Overread into Lead-In and Lead-Out : No
Fill up missing offset samples with silence : Yes
Delete leading and trailing silent blocks : No
Null samples used in CRC calculations : Yes
Used interface : Native Win32 interface for Win NT & 2000
Used output format : User Defined Encoder
Selected bitrate : 128 kBit/s
Quality : High
Add ID3 tag : No
Command line compressor : C:\Program Files\Exact Audio Copy\Flac\flac.exe
Additional command line options : -V -8 -T "Date=%year%" -T "Genre=%genre%" %source%
TOC of the extracted CD
Track | Start | Length | Start sector | End sector
---------------------------------------------------------
1 | 0:00.00 | 3:52.15 | 0 | 17414
2 | 3:52.15 | 1:32.26 | 17415 | 24340
3 | 5:24.41 | 3:55.56 | 24341 | 42021
4 | 9:20.22 | 3:58.33 | 42022 | 59904
5 | 13:18.55 | 0:32.01 | 59905 | 62305
6 | 13:50.56 | 3:46.12 | 62306 | 79267
7 | 17:36.68 | 3:53.21 | 79268 | 96763
8 | 21:30.14 | 9:02.32 | 96764 | 137445
9 | 30:32.46 | 2:53.28 | 137446 | 150448
10 | 33:25.74 | 2:28.69 | 150449 | 161617
11 | 35:54.68 | 4:58.08 | 161618 | 183975
12 | 40:53.01 | 2:00.62 | 183976 | 193037
13 | 42:53.63 | 5:14.71 | 193038 | 216658
14 | 48:08.59 | 7:52.61 | 216659 | 252119
15 | 56:01.45 | 4:11.38 | 252120 | 270982
16 | 60:13.08 | 5:32.69 | 270983 | 295951
17 | 65:46.02 | 4:44.07 | 295952 | 317258
18 | 70:30.09 | 3:52.38 | 317259 | 334696
19 | 74:22.47 | 3:39.29 | 334697 | 351150
Range status and errors
Selected range
Filename C:\Program Files\Exact Audio Copy\Flac\Haydn - L'infedelta costante.wav
Peak level 96.6 %
Extraction speed 8.0 X
Range quality 100.0 %
Test CRC 6F982F87
Copy CRC 6F982F87
Copy OK
No errors occurred
End of status report
==== Log checksum 7799453F0F688B629C5C10006C7C314BE5AB348A285AC64E3EDECAF6163D4755 ====

CD26: Kapsbergiana: All around Libro Terzo 1626 [61.00]

Исполнители:
Los Otros:
Lee Santana, chitarrone
Hille Perl, viola da gamba, lirone
Steve Player, chitarrome, guitar
Треклист:
Giovanni Girolamo Kapsberger
01. Toccata seconda (05:36)
02. Corrente seconda (02:08)
03. Toccata terza (02:47)
04. Toccata quarta (03:01)
05. Gagliarda (05:28)
Vincenzo Bonizzi
06. La bella netta ignuda (04:23)
07. Toccata quinta (03:02)
08. Toccata sesta (02:55)
09. Ballo (04:38)
10. Ancidetemi pur (05:40)
11. Toccata settima (02:26)
12. Corrente prima (05:41)
13. Toccata ottava (02:19)
Antonio Bertali
14. Sonata in d (06:18)
15. Come esser puo (04:29)-

LOG CD26:

Exact Audio Copy V1.0 beta 3 from 29. August 2011
EAC extraction logfile from 7. November 2015, 10:12
Los Otros / Kapsbergiana - All Around Libro Terzo 1626
Used drive : PIONEER BD-RW BDR-207M Adapter: 0 ID: 0
Read mode : Secure
Utilize accurate stream : Yes
Defeat audio cache : Yes
Make use of C2 pointers : No
Read offset correction : 667
Overread into Lead-In and Lead-Out : No
Fill up missing offset samples with silence : Yes
Delete leading and trailing silent blocks : No
Null samples used in CRC calculations : Yes
Used interface : Native Win32 interface for Win NT & 2000
Used output format : User Defined Encoder
Selected bitrate : 128 kBit/s
Quality : High
Add ID3 tag : No
Command line compressor : C:\Program Files\Exact Audio Copy\Flac\flac.exe
Additional command line options : -V -8 -T "Date=%year%" -T "Genre=%genre%" %source%
TOC of the extracted CD
Track | Start | Length | Start sector | End sector
---------------------------------------------------------
1 | 0:00.00 | 5:36.26 | 0 | 25225
2 | 5:36.26 | 2:08.56 | 25226 | 34881
3 | 7:45.07 | 2:47.21 | 34882 | 47427
4 | 10:32.28 | 3:01.52 | 47428 | 61054
5 | 13:34.05 | 5:28.50 | 61055 | 85704
6 | 19:02.55 | 4:23.12 | 85705 | 105441
7 | 23:25.67 | 3:02.04 | 105442 | 119095
8 | 26:27.71 | 2:55.64 | 119096 | 132284
9 | 29:23.60 | 4:38.07 | 132285 | 153141
10 | 34:01.67 | 5:40.38 | 153142 | 178679
11 | 39:42.30 | 2:26.10 | 178680 | 189639
12 | 42:08.40 | 5:41.21 | 189640 | 215235
13 | 47:49.61 | 2:19.41 | 215236 | 225701
14 | 50:09.27 | 6:18.59 | 225702 | 254110
15 | 56:28.11 | 4:30.14 | 254111 | 274374
Range status and errors
Selected range
Filename C:\Program Files\Exact Audio Copy\Flac\Kapsbergiana - All Around Libro Terzo 1626.wav
Peak level 62.9 %
Extraction speed 7.1 X
Range quality 99.9 %
Test CRC 3F70BDEA
Copy CRC 3F70BDEA
Copy OK
No errors occurred
End of status report
==== Log checksum 26357FAEDF229ED1E6FFA0FA7AA3A6333EFCB11DA7DEAF3980493E608489A054 ====

CD27: Lava: Opera arias from 18th century Napoli [76.47]

Исполнители:
Simone Kermes, soprano
Le Musiche Nove
Direction - Claudio Osele
Треклист:
Giovanni Battista Pergolesi
01. L'Olimpiade: Tu me da me dividi (Aristea) (02:48)
Nicola Porpora
02. Lucio Papirio: Morte amara (Quinto Fabio) (05:14)
03. Flavio Anicio Olibrio: Se non dovesse il pie (Insertion aria) (04:25)
Leonardo da Vinci
04. Artaserse: Fra sento affanni e cento (Arbace) (03:38)
Delib Leo
05. Il Demetrio: Manca sollecita (Cleonice) (08:17)
Johann Adolph Hasse
06. Viriate: Come nave in mezzo all'onde (Siface) (05:26)
Giovanni Battista Pergolesi
07. Adriano In Siria: Lieto cosi alvolta (Farnaspe) (14:16)
Johann Adolph Hasse
08. Antigono: Perche, se tanti siete (Berenice) (04:12)
Leonardo da Vinci
09. Artaserse: No che non ha la sorte ... Vo solcando un mar crudele (Arb... (08:22)
Nicola Porpora
10. Lucio Papirio: Tocco il porto (Quinto Fabio) (04:37)
Johann Adolph Hasse
11. Didone Abbandonata: Tu dici ch'io non speri ... L'augelletto in lacci... (10:13)
Giovanni Battista Pergolesi
12. L'Olimpiade: Mentre dormi amor formenti (Licida) (05:09)-

LOG CD27:

Exact Audio Copy V1.0 beta 3 from 29. August 2011
EAC extraction logfile from 7. November 2015, 10:52
Simone Kermes - Claudio Osele / Lava - Opera Arias from 18th Century Napoli
Used drive : PIONEER BD-RW BDR-207M Adapter: 0 ID: 0
Read mode : Secure
Utilize accurate stream : Yes
Defeat audio cache : Yes
Make use of C2 pointers : No
Read offset correction : 667
Overread into Lead-In and Lead-Out : No
Fill up missing offset samples with silence : Yes
Delete leading and trailing silent blocks : No
Null samples used in CRC calculations : Yes
Used interface : Native Win32 interface for Win NT & 2000
Used output format : User Defined Encoder
Selected bitrate : 128 kBit/s
Quality : High
Add ID3 tag : No
Command line compressor : C:\Program Files\Exact Audio Copy\Flac\flac.exe
Additional command line options : -V -8 -T "Date=%year%" -T "Genre=%genre%" %source%
TOC of the extracted CD
Track | Start | Length | Start sector | End sector
---------------------------------------------------------
1 | 0:00.00 | 2:48.49 | 0 | 12648
2 | 2:48.49 | 5:14.67 | 12649 | 36265
3 | 8:03.41 | 4:25.39 | 36266 | 56179
4 | 12:29.05 | 3:38.59 | 56180 | 72588
5 | 16:07.64 | 8:17.31 | 72589 | 109894
6 | 24:25.20 | 5:26.16 | 109895 | 134360
7 | 29:51.36 | 14:16.64 | 134361 | 198624
8 | 44:08.25 | 4:12.49 | 198625 | 217573
9 | 48:20.74 | 8:22.36 | 217574 | 255259
10 | 56:43.35 | 4:37.62 | 255260 | 276096
11 | 61:21.22 | 10:13.54 | 276097 | 322125
12 | 71:35.01 | 5:10.09 | 322126 | 345384
Range status and errors
Selected range
Filename C:\Program Files\Exact Audio Copy\Flac\Lava - Opera Arias from 18th Century Napoli.wav
Peak level 100.0 %
Extraction speed 7.9 X
Range quality 100.0 %
Test CRC E408FFA5
Copy CRC E408FFA5
Copy OK
No errors occurred
End of status report
==== Log checksum FF9711AE9061FA81E73CE522E8A07F7835CE3B0FF2B1F3BDE07E6A35DFFCE611 ====

Внимание! Раздача ведется путем добавления новых дисков

Внимание! Раздача ведётся путём добавления новых дисков; при каждом добавлении создаётся новый торрент. Чтобы начать докачку нового диска, пользователям необходимо сделать следующее:
(1) остановить скачивание,
(2) удалить старый торрент у себя из клиента (старые диски удалять не надо),
(3) скачать новый торрент и запустить его у себя в клиенте вместо старого, при этом указать клиенту путь в старую папку куда и должно происходить скачивание новых дисков.
Ваш клиент при этом должен произвести хеширование (проверку) старой папки (если не производит сам - помогите ему сделать это), и будет докачивать только те диски которых у вас ещё нет. Старые диски при этом не удаляются, а продолжают раздаваться!
Eсли вы уже удалили старые диски, то предотвратить повторную закачку старых дисков можно, отжав галочку в соответствующих местах при запуске нового торрента. По возможности, желательно не удалять старые диски как можно дольше чтобы релизёр не столько продолжал раздавать старые диски, а смог сконцентрироваться на новых.
-Внимание, релиз окончательно обновлен 27.11.2015 в 09:30 по МСК времени, добавлены новые альбомы с 37-50, просьба перекачать торрент-файл заново.
[teatrix.ru].t22488.torrent 
Торрент: Зарегистрирован [ 2016-03-21 00:01 ] · 9CE8BB2338DC402F9EE8829862DF3F7B10B595FE

Скачать .torrent

Скачать

89 KB

Статус: проверено
Скачан: 3 раз
Размер: 14.28 GB
terms.php



Быстрый ответ

Имя:

      
Для отправки сообщений необходимо включить JavaScript
Показать сообщения:    

Текущее время: 05-Дек 19:38

Часовой пояс: UTC + 3


Вы можете начинать темы
Вы можете отвечать на сообщения
Вы не можете редактировать свои сообщения
Вы не можете удалять свои сообщения
Вы не можете голосовать в опросах
Вы не можете прикреплять файлы к сообщениям
Вы можете скачивать файлы