(Classical, Crossover) [CD] David Garrett - Explosive - 2015, FLAC (image+.cue), lossless


 

[Цитировать]

David Garrett / Explosive
Жанр: Crossover
Носитель: CD
Страна-производитель диска (релиза): EU
Год издания: 2015
Издатель (лейбл): DECCA Records
Номер по каталогу: 4753774
Страна исполнителя (группы): Germany, EU
Аудиокодек: FLAC (*.flac)
Тип рипа: image+.cue
Битрейт аудио: lossless
Продолжительность: 49:56.693 + 21:59.453
Источник (релизер): собственный рип
Наличие сканов в содержимом раздачи: нет

Треклист CD1

01 Dangerous
02 Explosive
03 Serenity feat. Nicole Scherzinger
04 Lose Yourself
05 Adventure Island
06 Midnight Waltz
07 How Many Times feat. Xavier Naidoo
08 Unlimited Symphony
09 They Don't Care About Us feat. Valentina Babor
10 Thinking Out Loud
11 Innovation
12 Ritmo Espanol
13 Baboushka
14 Baroque Fantasy
15 Furious

Треклист CD2

01 Wrecking Ball
02 Fuel
03 Melancholia
04 O Fortuna
05 Serenity (Instrumental Version)
06 Explosive Backing Track

Лог создания рипа CD1

Exact Audio Copy V1.1 from 23. June 2015
EAC extraction logfile from 21. October 2015, 22:22
David Garrett / Explosive
Used drive : Optiarc DVD RW AD-5200S Adapter: 1 ID: 0
Read mode : Secure
Utilize accurate stream : Yes
Defeat audio cache : Yes
Make use of C2 pointers : No
Read offset correction : 48
Overread into Lead-In and Lead-Out : No
Fill up missing offset samples with silence : Yes
Delete leading and trailing silent blocks : No
Null samples used in CRC calculations : Yes
Used interface : Native Win32 interface for Win NT & 2000
Used output format : Internal WAV Routines
Sample format : 44.100 Hz; 16 Bit; Stereo
TOC of the extracted CD
Track | Start | Length | Start sector | End sector
---------------------------------------------------------
1 | 0:00.00 | 3:54.62 | 0 | 17611
2 | 3:54.62 | 3:32.73 | 17612 | 33584
3 | 7:27.60 | 3:42.72 | 33585 | 50306
4 | 11:10.57 | 3:06.32 | 50307 | 64288
5 | 14:17.14 | 2:45.30 | 64289 | 76693
6 | 17:02.44 | 3:08.34 | 76694 | 90827
7 | 20:11.03 | 3:22.00 | 90828 | 105977
8 | 23:33.03 | 3:13.32 | 105978 | 120484
9 | 26:46.35 | 3:40.41 | 120485 | 137025
10 | 30:27.01 | 3:43.11 | 137026 | 153761
11 | 34:10.12 | 2:56.66 | 153762 | 167027
12 | 37:07.03 | 2:56.12 | 167028 | 180239
13 | 40:03.15 | 3:18.00 | 180240 | 195089
14 | 43:21.15 | 3:12.42 | 195090 | 209531
15 | 46:33.57 | 3:22.70 | 209532 | 224751
Range status and errors
Selected range
Filename F:\R_MUSIC\David Garrett [2015] Explosive (CD1)\David Garrett - Explosive.wav
Peak level 94.3 %
Extraction speed 3.9 X
Range quality 100.0 %
Test CRC 00569570
Copy CRC 00569570
Copy OK
No errors occurred
AccurateRip summary
Track 1 not present in database
Track 2 not present in database
Track 3 not present in database
Track 4 not present in database
Track 5 not present in database
Track 6 not present in database
Track 7 not present in database
Track 8 not present in database
Track 9 not present in database
Track 10 not present in database
Track 11 not present in database
Track 12 not present in database
Track 13 not present in database
Track 14 not present in database
Track 15 not present in database
None of the tracks are present in the AccurateRip database
End of status report
---- CUETools DB Plugin V2.1.6
[CTDB TOCID: Ls39E7X81WjsISBVZ2pdfAVWUjQ-] found
Submit result: Ls39E7X81WjsISBVZ2pdfAVWUjQ- has been confirmed
Track | CTDB Status
1 | (13/14) Accurately ripped
2 | (14/14) Accurately ripped
3 | (13/14) Accurately ripped
4 | (14/14) Accurately ripped
5 | (13/14) Accurately ripped
6 | (14/14) Accurately ripped
7 | (14/14) Accurately ripped
8 | (14/14) Accurately ripped
9 | (14/14) Accurately ripped
10 | (14/14) Accurately ripped
11 | (14/14) Accurately ripped
12 | (14/14) Accurately ripped
13 | (14/14) Accurately ripped
14 | (14/14) Accurately ripped
15 | (14/14) Accurately ripped
==== Log checksum E4131B3805D7A0AF1A5A898FA37E7E132AA9169EA16731B2A09C09A9544AA91A ====

Лог создания рипа CD2

Exact Audio Copy V1.1 from 23. June 2015
EAC extraction logfile from 21. October 2015, 23:12
David Garrett / Explosive
Used drive : Optiarc DVD RW AD-5200S Adapter: 1 ID: 0
Read mode : Secure
Utilize accurate stream : Yes
Defeat audio cache : Yes
Make use of C2 pointers : No
Read offset correction : 48
Overread into Lead-In and Lead-Out : No
Fill up missing offset samples with silence : Yes
Delete leading and trailing silent blocks : No
Null samples used in CRC calculations : Yes
Used interface : Native Win32 interface for Win NT & 2000
Used output format : Internal WAV Routines
Sample format : 44.100 Hz; 16 Bit; Stereo
TOC of the extracted CD
Track | Start | Length | Start sector | End sector
---------------------------------------------------------
1 | 0:00.00 | 3:45.70 | 0 | 16944
2 | 3:45.70 | 3:48.51 | 16945 | 34095
3 | 7:34.46 | 3:09.42 | 34096 | 48312
4 | 10:44.13 | 3:56.60 | 48313 | 66072
5 | 14:40.73 | 3:43.36 | 66073 | 82833
6 | 18:24.34 | 3:35.00 | 82834 | 98958
Range status and errors
Selected range
Filename F:\R_MUSIC\David Garrett [2015] Explosive (CD2)\David Garrett - Explosive (CD2).wav
Peak level 93.9 %
Extraction speed 3.1 X
Range quality 100.0 %
Test CRC D3B7570E
Copy CRC D3B7570E
Copy OK
No errors occurred
AccurateRip summary
Track 1 not present in database
Track 2 not present in database
Track 3 not present in database
Track 4 not present in database
Track 5 not present in database
Track 6 not present in database
None of the tracks are present in the AccurateRip database
End of status report
---- CUETools DB Plugin V2.1.6
[CTDB TOCID: 0ADTe5cbCDLgCSCs2wzHf3Oj64k-] found
Submit result: 0ADTe5cbCDLgCSCs2wzHf3Oj64k- has been confirmed
Track | CTDB Status
1 | (9/9) Accurately ripped
2 | (9/9) Accurately ripped
3 | (9/9) Accurately ripped
4 | (9/9) Accurately ripped
5 | (8/9) Accurately ripped
6 | (9/9) Accurately ripped
==== Log checksum 105EE3A3A094FA77C6C49670476EE114B52C56855B21164EACB37AF051AB8F85 ====

Содержание индексной карты (.CUE) CD1

REM GENRE Crossover
REM DATE 2015
REM DISCID C40BB40F
REM COMMENT "ExactAudioCopy v1.1"
CATALOG 0602547490971
PERFORMER "David Garrett"
TITLE "Explosive"
FILE "David Garrett - Explosive.flac" WAVE
TRACK 01 AUDIO
TITLE "Dangerous"
PERFORMER "David Garrett"
ISRC GBUM71505214
INDEX 01 00:00:00
TRACK 02 AUDIO
TITLE "Explosive"
PERFORMER "David Garrett"
ISRC GBUM71505217
INDEX 00 03:53:57
INDEX 01 03:54:62
TRACK 03 AUDIO
TITLE "Serenity ft. Nicole Scherzinger"
PERFORMER "David Garrett"
ISRC GBUM71505219
INDEX 01 07:27:60
TRACK 04 AUDIO
TITLE "Lose Yourself"
PERFORMER "David Garrett"
ISRC GBUM71505218
INDEX 01 11:10:57
TRACK 05 AUDIO
TITLE "Adventure Island"
PERFORMER "David Garrett"
ISRC GBUM71505220
INDEX 01 14:17:14
TRACK 06 AUDIO
TITLE "Midnight Waltz"
PERFORMER "David Garrett"
ISRC GBUM71505225
INDEX 01 17:02:44
TRACK 07 AUDIO
TITLE "How Many Times ft. Xavier Naidoo"
PERFORMER "David Garrett"
ISRC GBUM71505221
INDEX 01 20:11:03
TRACK 08 AUDIO
TITLE "Unlimited Symphony"
PERFORMER "David Garrett"
ISRC GBUM71505224
INDEX 00 23:31:35
INDEX 01 23:33:03
TRACK 09 AUDIO
TITLE "They Don't Care About Us ft. Valentina Babor"
PERFORMER "David Garrett"
ISRC GBUM71505238
INDEX 00 26:45:43
INDEX 01 26:46:35
TRACK 10 AUDIO
TITLE "Thinking Out Loud"
PERFORMER "David Garrett"
ISRC GBUM71505237
INDEX 00 30:25:73
INDEX 01 30:27:01
TRACK 11 AUDIO
TITLE "Innovation"
PERFORMER "David Garrett"
ISRC GBUM71505223
INDEX 00 34:08:11
INDEX 01 34:10:12
TRACK 12 AUDIO
TITLE "Ritmo Espanol"
PERFORMER "David Garrett"
ISRC GBUM71505239
INDEX 00 37:05:64
INDEX 01 37:07:03
TRACK 13 AUDIO
TITLE "Baboushka"
PERFORMER "David Garrett"
ISRC GBUM71505227
INDEX 01 40:03:15
TRACK 14 AUDIO
TITLE "Baroque Fantasy"
PERFORMER "David Garrett"
ISRC GBUM71505228
INDEX 00 43:19:49
INDEX 01 43:21:15
TRACK 15 AUDIO
TITLE "Furious"
PERFORMER "David Garrett"
ISRC GBUM71505226
INDEX 00 46:32:51
INDEX 01 46:33:57

Содержание индексной карты (.CUE) CD2

REM GENRE Crossover
REM DATE 2015
REM DISCID 46052706
REM COMMENT "ExactAudioCopy v1.1"
CATALOG 0602547490995
PERFORMER "David Garrett"
TITLE "Explosive"
FILE "David Garrett - Explosive (CD2).flac" WAVE
TRACK 01 AUDIO
TITLE "Wrecking Ball"
PERFORMER "David Garrett"
ISRC GBUM71505241
INDEX 01 00:00:00
TRACK 02 AUDIO
TITLE "Fuel"
PERFORMER "David Garrett"
ISRC GBUM71505230
INDEX 00 03:45:02
INDEX 01 03:45:70
TRACK 03 AUDIO
TITLE "Melancholia"
PERFORMER "David Garrett"
ISRC GBUM71505240
INDEX 00 07:31:12
INDEX 01 07:34:46
TRACK 04 AUDIO
TITLE "O Fortuna"
PERFORMER "David Garrett"
ISRC GBUM71505229
INDEX 01 10:44:13
TRACK 05 AUDIO
TITLE "Serenity - Instrumental Version"
PERFORMER "David Garrett"
ISRC GBUM71505628
INDEX 00 14:38:27
INDEX 01 14:40:73
TRACK 06 AUDIO
TITLE "Explosive - Backing Track"
PERFORMER "David Garrett"
ISRC GBUM71505629
INDEX 00 18:23:21
INDEX 01 18:24:34



Показать сообщения:    

Текущее время: 09-Дек 03:03

Часовой пояс: UTC + 3


Вы не можете начинать темы
Вы не можете отвечать на сообщения
Вы не можете редактировать свои сообщения
Вы не можете удалять свои сообщения
Вы не можете голосовать в опросах
Вы не можете прикреплять файлы к сообщениям
Вы не можете скачивать файлы