(Classical) Теллефсен – Сонаты скрипичная (№ 1) и виолончельная; Фортепианное трио / Tellefsen – Chamber works: Violin & Cello sonatas; Piano trio (Atle Sponberg, Oystein Birkeland, Einar Steen-NOkleberg) - 2004, FLAC (image+.cue) lossless


 

[Цитировать]

Теллефсен – Сонаты скрипичная (№ 1) и виолончельная; Фортепианное трио / Tellefsen – Chamber works: Violin & Cello sonatas; Piano trio (Atle Sponberg, Øystein Birkeland, Einar Steen-Nøkleberg)
Жанр: Classical
Страна-производитель диска: Норвегия?
Год издания диска: 2004
Издатель (лейбл): SIMAX classics, Nordic Edition
Номер по каталогу: PSC 1226
Дата записи: 9 — 10 сентября и 8 — 10 ноября 2001 г., Осло.
Аудиокодек: FLAC
Тип рипа: image+.cue
Битрейт аудио: lossless
Продолжительность: 01:21:02
Источник: ottorillo на Погружении
Наличие сканов в содержимом раздачи: да
Треклист:-Томас Дюк Акланд Теллефсен (1823 — 1874).-Соната для фортепиано и скрипки № 1 G-dur, op. 19 (1855 — 1856, опубл. 1856).
01. I. Allegro moderato [06:55].
02. II. Adagio con molto espressione [07:51].
03. III. Scherzo. Presto [05:20].
04. IV. Finale. Allegro vivace [06:04].
Соната для фортепиано и виолончели Es-dur, op. 21 (перв. исп. 1857?, опубл. 1857).
05. I. Allegro [09:28].
06. II. Allegretto [06:30].
07. III. Finale. Allegro [05:49].
Трио для фортепиано, скрипки и виолончели B-dur, op. 31 (1861, опубл. 1862).
08. I. Allegro maestoso [11:54].
09. II. Scherzo. Moderato [04:22].
10. III. Adagio [08:49].
11. IV. Finale. Allegro [07:54].-Исполнители:-Atle Sponberg (скрипка),
Øystein Birkeland (виолончель),
Einar Steen-Nøkleberg (фортепиано).-

Лог создания рипа

Exact Audio Copy V1.0 beta 3 from 29. August 2011
Отчёт EAC об извлечении, выполненном 12. октября 2013, 18:58
Einar Steen Nøkleberg, Atle Sponberg, Øystein Birkeland / Chamber works
Дисковод: TSSTcorpCDDVDW SH-224DB Adapter: 0 ID: 0
Режим чтения : Достоверность
Использование точного потока : Да
Отключение кэша аудио : Нет
Использование указателей C2 : Нет
Коррекция смещения при чтении : 6
Способность читать области Lead-in и Lead-out : Нет
Заполнение пропущенных сэмплов тишиной : Да
Удаление блоков с тишиной в начале и конце : Нет
При вычислениях CRC использовались нулевые сэмплы : Да
Интерфейс : Встроенный Win32-интерфейс для Win NT/2000
Выходной формат : Пользовательский кодировщик
Выбранный битрейт : 128 kBit/s
Качество : Высокий
Добавление ID3-тега : Нет
Утилита сжатия : C:\Program Files (x86)\Exact Audio Copy\Flac\flac.exe
Дополнительные параметры : -V -8 -T "Date=%year%" -T "Genre=%genre%" %source%
TOC извлечённого CD
Трек | Старт | Длительность | Начальный сектор | Конечный сектор
---------------------------------------------------------------------
1 | 0:00.00 | 6:55.16 | 0 | 31140
2 | 6:55.16 | 7:50.36 | 31141 | 66426
3 | 14:45.52 | 5:20.37 | 66427 | 90463
4 | 20:06.14 | 6:04.71 | 90464 | 117834
5 | 26:11.10 | 9:28.41 | 117835 | 160475
6 | 35:39.51 | 6:29.35 | 160476 | 189685
7 | 42:09.11 | 5:49.68 | 189686 | 215928
8 | 47:59.04 | 11:53.44 | 215929 | 269447
9 | 59:52.48 | 4:23.41 | 269448 | 289213
10 | 64:16.14 | 8:48.37 | 289214 | 328850
11 | 73:04.51 | 7:54.08 | 328851 | 364408
Характеристики диапазона извлечения и сообщения об ошибках
Выбранный диапазон
Имя файла C:\Users\Игорь\Music\EAC\telCha\Einar Steen Nøkleberg, Atle Sponberg, Øystein Birkeland - Chamber works.wav
Пиковый уровень 93.5 %
Скорость извлечения 12.4 X
Качество диапазона 100.0 %
CRC копии B95B9988
Копирование... OK
Ошибок не произошло
AccurateRip: сводка
Трек 1 отсутствует в базе данных
Трек 2 отсутствует в базе данных
Трек 3 отсутствует в базе данных
Трек 4 отсутствует в базе данных
Трек 5 отсутствует в базе данных
Трек 6 отсутствует в базе данных
Трек 7 отсутствует в базе данных
Трек 8 отсутствует в базе данных
Трек 9 отсутствует в базе данных
Трек 10 отсутствует в базе данных
Трек 11 отсутствует в базе данных
Ни одного трека нет в базе AccurateRip
Конец отчёта
==== Контрольная сумма отчёта 9F3D009A05B69E107404E867BFE09E2CCCDA3CCA92E05FC65A1C014962414A9B ====

Содержание индексной карты (.CUE)

REM GENRE Classical
REM DATE 2004
REM DISCID A812FA0B
REM COMMENT "ExactAudioCopy v1.0b3"
PERFORMER "Einar Steen Nokleberg, Atle Sponberg, Oystein Birkeland"
TITLE "Tellefsen – Chamber works – Einar Steen-Nokleberg, Atle Sponberg, Oystein Birkeland"
FILE "Tellefsen – Chamber works – Einar Steen-Nokleberg, Atle Sponberg, Oystein Birkeland.flac" WAVE
TRACK 01 AUDIO
TITLE "Sonata for piano and violin in G major, Op. 19 - I. Allegro moderato"
PERFORMER "Einar Steen Nokleberg & Atle Sponberg"
INDEX 01 00:00:00
TRACK 02 AUDIO
TITLE "Sonata for piano and violin in G major, Op. 19 - II. Adagio con molto espressione"
PERFORMER "Einar Steen Nokleberg & Atle Sponberg"
INDEX 01 06:55:16
TRACK 03 AUDIO
TITLE "Sonata for piano and violin in G major, Op. 19 - III. Scherzo. Presto"
PERFORMER "Einar Steen Nokleberg & Atle Sponberg"
INDEX 01 14:45:52
TRACK 04 AUDIO
TITLE "Sonata for piano and violin in G major, Op. 19 - IV. Finale. Allegro vivace"
PERFORMER "Einar Steen Nokleberg & Atle Sponberg"
INDEX 01 20:06:14
TRACK 05 AUDIO
TITLE "Sonata for piano and cello in E flat major, Op. 21 - I. Allegro"
PERFORMER "Einar Steen Nokleberg & Oystein Birkeland"
INDEX 00 26:07:16
INDEX 01 26:11:10
TRACK 06 AUDIO
TITLE "Sonata for piano and cello in E flat major, Op. 21 - II. Allegretto"
PERFORMER "Einar Steen Nokleberg & Oystein Birkeland"
INDEX 01 35:39:51
TRACK 07 AUDIO
TITLE "Sonata for piano and cello in E flat major, Op. 21 - III. Finale. Allegro"
PERFORMER "Einar Steen Nokleberg & Oystein Birkeland"
INDEX 01 42:09:11
TRACK 08 AUDIO
TITLE "Trio for piano, violin and cello in B flat major, Op. 31 - I. Allegro maestoso"
PERFORMER "Einar Steen Nokleberg, Atle Sponberg, Oystein Birkeland"
INDEX 01 47:59:04
TRACK 09 AUDIO
TITLE "Trio for piano, violin and cello in B flat major, Op. 31 - II. Scherzo. Moderato"
PERFORMER "Einar Steen Nokleberg, Atle Sponberg, Oystein Birkeland"
INDEX 01 59:52:48
TRACK 10 AUDIO
TITLE "Trio for piano, violin and cello in B flat major, Op. 31 - III. Adagio"
PERFORMER "Einar Steen Nokleberg, Atle Sponberg, Oystein Birkeland"
INDEX 01 64:16:14
TRACK 11 AUDIO
TITLE "Trio for piano, violin and cello in B flat major, Op. 31 - IV. Finale. Allegro"
PERFORMER "Einar Steen Nokleberg, Atle Sponberg, Oystein Birkeland"
INDEX 01 73:04:51

Вариант индексной карты (.CUE) с выставленными зазорами

REM GENRE Classical
REM DATE 2004
REM DISCID A812FA0B
REM COMMENT "ExactAudioCopy v1.0b3"
PERFORMER "Einar Steen Nokleberg, Atle Sponberg, Oystein Birkeland"
TITLE "Tellefsen – Chamber works – Einar Steen-Nokleberg, Atle Sponberg, Oystein Birkeland"
FILE "Tellefsen – Chamber works – Einar Steen-Nokleberg, Atle Sponberg, Oystein Birkeland.flac" WAVE
TRACK 01 AUDIO
TITLE "Sonata for piano and violin in G major, Op. 19 - I. Allegro moderato"
PERFORMER "Einar Steen Nokleberg & Atle Sponberg"
INDEX 00 00:00:00
INDEX 01 00:02:16
TRACK 02 AUDIO
TITLE "Sonata for piano and violin in G major, Op. 19 - II. Adagio con molto espressione"
PERFORMER "Einar Steen Nokleberg & Atle Sponberg"
INDEX 00 06:49:62
INDEX 01 06:55:16
TRACK 03 AUDIO
TITLE "Sonata for piano and violin in G major, Op. 19 - III. Scherzo. Presto"
PERFORMER "Einar Steen Nokleberg & Atle Sponberg"
INDEX 01 14:46:33
TRACK 04 AUDIO
TITLE "Sonata for piano and violin in G major, Op. 19 - IV. Finale. Allegro vivace"
PERFORMER "Einar Steen Nokleberg & Atle Sponberg"
INDEX 01 20:07:08
TRACK 05 AUDIO
TITLE "Sonata for piano and cello in E flat major, Op. 21 - I. Allegro"
PERFORMER "Einar Steen Nokleberg & Oystein Birkeland"
INDEX 00 26:07:09
INDEX 01 26:12:74
TRACK 06 AUDIO
TITLE "Sonata for piano and cello in E flat major, Op. 21 - II. Allegretto"
PERFORMER "Einar Steen Nokleberg & Oystein Birkeland"
INDEX 00 35:36:17
INDEX 01 35:40:18
TRACK 07 AUDIO
TITLE "Sonata for piano and cello in E flat major, Op. 21 - III. Finale. Allegro"
PERFORMER "Einar Steen Nokleberg & Oystein Birkeland"
INDEX 00 42:07:65
INDEX 01 42:09:71
TRACK 08 AUDIO
TITLE "Trio for piano, violin and cello in B flat major, Op. 31 - I. Allegro maestoso"
PERFORMER "Einar Steen Nokleberg, Atle Sponberg, Oystein Birkeland"
INDEX 00 47:52:66
INDEX 01 48:00:46
TRACK 09 AUDIO
TITLE "Trio for piano, violin and cello in B flat major, Op. 31 - II. Scherzo. Moderato"
PERFORMER "Einar Steen Nokleberg, Atle Sponberg, Oystein Birkeland"
INDEX 00 59:49:46
INDEX 01 59:53:11
TRACK 10 AUDIO
TITLE "Trio for piano, violin and cello in B flat major, Op. 31 - III. Adagio"
PERFORMER "Einar Steen Nokleberg, Atle Sponberg, Oystein Birkeland"
INDEX 00 64:07:74
INDEX 01 64:16:50
TRACK 11 AUDIO
TITLE "Trio for piano, violin and cello in B flat major, Op. 31 - IV. Finale. Allegro"
PERFORMER "Einar Steen Nokleberg, Atle Sponberg, Oystein Birkeland"
INDEX 01 73:05:39
INDEX 02 80:57:36
-



Показать сообщения:    

Текущее время: 10-Дек 02:16

Часовой пояс: UTC + 3


Вы не можете начинать темы
Вы не можете отвечать на сообщения
Вы не можете редактировать свои сообщения
Вы не можете удалять свои сообщения
Вы не можете голосовать в опросах
Вы не можете прикреплять файлы к сообщениям
Вы не можете скачивать файлы