Левиафан / Leviathan (Андрей Звягинцев / Andrey Zvyagintsev) [2014, Россия, драма, притча, BDRip] Original Rus


 

[Цитировать]

Левиафан / Leviathan
Страна: Россия
Жанр: драма, притча
Год выпуска: 2014
Продолжительность: 02:21:27
Перевод: не требуется
Cубтитры: отсутствуют
Оригинальная аудиодорожка: русский
Режиссёр: Андрей Звягинцев / Andrey Zvyagintsev
Актеры: Алексей Серебряков, Елена Лядова, Владимир Вдовиченков, Роман Мадянов, Анна Уколова, Алексей Розин, Сергей Походаев, Платон Каменев, Сергей Бачурский, Валерий Гришко, Алла Еминцева, Маргарита Шубина, Дмитрий Быковский-Ромашов, Сергей Борисов, Игорь Савочкин, Игорь Сергеев и др.
Аннотация: Николаю не повезло - он живёт в собственном доме на очень хорошем земельном участке... Истекая слюной, местный "удельный князёк" решил забрать участок себе, но не совсем по справедливости, и совсем не по закону... Друг Николая - московский адвокат Дмитрий, приехал на помощь, он привёз огромную толстую папку, в которой многотомный сборник документальных рассказов о криминальных "подвигах" заплывшего жиром и переполнившегося собственной желчью местного правителя. Дмитрий таким образом решил "помочь" другу, и ещё хотел поставить на место совсем обнаглевшего чиновника...

Качество видео: BDRip [Blu-ray_FRE_1080p+HDClub / Alex_007+HQ-ViDEO]
Формат видео: AVI
Видео: 720x304 (2.37:1), 24 fps, XviD build 65 ~1751 kbps avg, 0.33 bit/pixel
Аудио: 48 kHz, AC3 Dolby Digital, 3/2 (L,C,R,l,r) + LFE ch, ~448 kbps

MediaInfo

Общее
Полное имя : C:\Leviafan_2014_BDRip_[rutracker.org].avi
Формат : AVI
Формат/Информация : Audio Video Interleave
Профиль формата : OpenDML
Размер файла : 2,18 Гбайт
Продолжительность : 2 ч. 21 м.
Общий поток : 2207 Кбит/сек
Название фильма : Leviafan (2014) BDRip
Режиссёр : Alex_007
Жанр : drama
Программа кодирования : VirtualDubMod 1.5.10.2 (build 2542/release)
Правообладатель : HQ-ViDEO
Примечание : 13.02.2015
Видео
Идентификатор : 0
Формат : MPEG-4 Visual
Профиль формата : Advanced Simple@L5
Параметр BVOP формата : 1
Параметр QPel формата : Нет
Параметр GMC формата : Без точки перехода
Параметр матрицы формата : Выборочная
Идентификатор кодека : XVID
Идентификатор кодека/Подсказка : XviD
Продолжительность : 2 ч. 21 м.
Битрейт : 1747 Кбит/сек
Ширина : 720 пикселей
Высота : 304 пикселя
Соотношение сторон : 2,35:1
Частота кадров : 24,000 кадра/сек
Цветовое пространство : YUV
Субдискретизация насыщенности : 4:2:0
Битовая глубина : 8 бит
Тип развёртки : Прогрессивная
Метод сжатия : С потерями
Бит/(Пиксели*Кадры) : 0.332
Размер потока : 1,73 Гбайт (79%)
Библиотека кодирования : XviD 65
Аудио
Идентификатор : 1
Формат : AC-3
Формат/Информация : Audio Coding 3
Расширение режима : CM (complete main)
Параметр Endianness формата : Big
Идентификатор кодека : 2000
Продолжительность : 2 ч. 21 м.
Вид битрейта : Постоянный
Битрейт : 448 Кбит/сек
Каналы : 6 каналов
Расположение каналов : Front: L C R, Side: L R, LFE
Частота : 48,0 КГц
Битовая глубина : 16 бит
Метод сжатия : С потерями
Размер потока : 453 Мбайт (20%)
Выравнивание : Разделение по промежуткам
Продолжительность промежутка : 42 мс. (1,00 видеокадр)
Время предзагрузки промежутка : 500 мс.

Скриншот c названием фильма

Время раздачи - по возможности.



Показать сообщения:    

Текущее время: 02-Дек 21:07

Часовой пояс: UTC + 3


Вы не можете начинать темы
Вы не можете отвечать на сообщения
Вы не можете редактировать свои сообщения
Вы не можете удалять свои сообщения
Вы не можете голосовать в опросах
Вы не можете прикреплять файлы к сообщениям
Вы не можете скачивать файлы