Режиссеры нашего времени: Луис Бунюэль / Cinéastes de notre temps: Luis Bunuel [1964, Франция, Документальный, DVDRip] + Sub Rus


Статистика раздачи [Обновить пиров]
Размер:  1.09 GB   |    Зарегистрирован:  8 месяцев 21 день   |    Скачан:  0 раз

Полного источника не было: Никогда

 
   
 
 
 

[Цитировать]

Режиссеры нашего времени: Луис Бунюэль / Cinéastes de notre temps: Luis Bunuel
Страна: Франция
Жанр: Документальный
Год выпуска: 1964
Продолжительность: 00:37:25
Перевод: Субтитры
Cубтитры: русские
В ролях: Луис Бунюэль, Жорж Садуль, Пьер Превер, Макс Эрнст, Рикардо Ургойти, Кончита Бунюэль и др.
Описание: Беседы с Луисом Бунюэлем
Качество видео: DVDRip
Формат видео: AVI
Видео: XviD, 608x480, 5:4, 23.976 fps, 2643 Kbps
Аудио: MP3, 48.0 KHz, 128 Kbps
Формат субтитров: softsub (SRT)

MediaInfo

General
Complete name : D:\Films\Luis Bunuel\Cinéastes de notre temps - Luis Bunuel\Cinéastes de notre temps - Luis Bunuel.avi
Format : AVI
Format/Info : Audio Video Interleave
File size : 744 MiB
Duration : 37mn 25s
Overall bit rate : 2 780 Kbps
Writing application : VirtualDubMod 1.5.10.2 (build 2540/release)
Writing library : VirtualDubMod build 2540/release
Video
ID : 0
Format : MPEG-4 Visual
Format profile : Advanced Simple@L5
Format settings, BVOP : 1
Format settings, QPel : No
Format settings, GMC : No warppoints
Format settings, Matrix : Default (MPEG)
Codec ID : XVID
Codec ID/Hint : XviD
Duration : 37mn 25s
Bit rate : 2 643 Kbps
Width : 608 pixels
Height : 480 pixels
Display aspect ratio : 5:4
Frame rate : 23.976 fps
Color space : YUV
Chroma subsampling : 4:2:0
Bit depth : 8 bits
Scan type : Progressive
Compression mode : Lossy
Bits/(Pixel*Frame) : 0.378
Stream size : 708 MiB (95%)
Writing library : XviD 1.2.0.dev47 (UTC 2006-11-01)
Audio
ID : 1
Format : MPEG Audio
Format version : Version 1
Format profile : Layer 3
Codec ID : 55
Codec ID/Hint : MP3
Duration : 37mn 25s
Bit rate mode : Constant
Bit rate : 128 Kbps
Channel(s) : 1 channel
Sampling rate : 48.0 KHz
Compression mode : Lossy
Stream size : 34.3 MiB (5%)
Alignment : Aligned on interleaves
Interleave, duration : 42 ms (1.00 video frame)
Interleave, preload duratio : 504 ms
Writing library : LAME3.97
Encoding settings : -m m -V 4 -q 2 -lowpass 20.5 -b 128

Скриншоты

Бонус

Интервью с Сильвией Пиналь.
[teatrix.ru].t22500.torrent 
Торрент: Зарегистрирован [ 2016-03-21 00:07 ] · 1E4E5384FE115984CF974D4B2047382ABCBD7046

Скачать .torrent

Скачать

12 KB

Статус: проверено
Скачан: 0 раз
Размер: 1.09 GB
terms.php



Быстрый ответ

Имя:

      
Для отправки сообщений необходимо включить JavaScript
Показать сообщения:    

Текущее время: 11-Дек 01:27

Часовой пояс: UTC + 3


Вы можете начинать темы
Вы можете отвечать на сообщения
Вы не можете редактировать свои сообщения
Вы не можете удалять свои сообщения
Вы не можете голосовать в опросах
Вы не можете прикреплять файлы к сообщениям
Вы можете скачивать файлы