[TR24][OF] The Romantic Cello Concerto – Vol. 7: Fitzenhagen 1 & 2; Tchaikovsky / Фитценгаген и Чайковский (Alban Gerhardt, Stefan Blunier) - 2015 (Classical)


Статистика раздачи [Обновить пиров]
Размер:  725 MB   |    Зарегистрирован:  8 месяцев 13 дней   |    Скачан:  0 раз

Полного источника не было: Никогда

 
   
 
 
 

[Цитировать]

The Romantic Cello Concerto – Vol. 7: Fitzenhagen 1 & 2; Tchaikovsky / Фитценгаген и Чайковский (Alban Gerhardt, Stefan Blunier)
Формат записи/Источник записи: [TR24][OF]
Год издания/переиздания диска: 2015
Жанр: Classical
Издатель(лейбл): Hyperion (CDA 68063)
Источник (релизер): web
Продолжительность: 01:14:58
Наличие сканов в содержимом раздачи: digital booklet-Контейнер: FLAC (*.flac)
Тип рипа: tracks
Разрядность: 24/48
Количество каналов: 2.0-Карл Фридрих Вильгельм (Василий Федорович) Фитценгаген (1848 — 1890).-Виолончельный концерт № 1 h-moll, op. 2 (1870, опубл. 1873).
01. I. Allegro moderato. — [07:54].
02. II. Andante. — [03:22].
03. III. Allegro quasi allegretto [05:24].
Виолончельный концерт № 2 a-moll «Фантастический», op. 4 (1871, опубл. 1873).
04. Maestoso. — [06:57].
05. — Andante. — [04:14].
06. — Allegro moderato [08:13].
Баллада fis-moll, концертная пьеса для виолончели с оркестром, op. 10 (опубл. 1875).
16. Adagio misterioso. — Moderato con espressione pathetico [sic]. — [Кода] [17:05].
«Смирение» (Resignation) Es-dur, духовная песня без слов для виолончели с фисгармонией или органом, op. 8 (опубл. 1872), оригинальная версия с малым оркестром (опубл. 1874).
17. Sehr langsam und feierlich [03:59].-Петр Ильич Чайковский (1840 — 1893).-Вариации на тему рококо A-dur для виолончели с оркестром, op. 33 (1876 — 1877; ред. В. Фитценгагена).
07. Moderato assai quasi andante. — [00:50].
08. — Thema. Moderato semplice. — [01:29].
09. — Variazione I. Tempo della thema. — [00:50].
10. — Variazione II. Tempo della thema. — [01:18].
11. — Variazione III. Andante sostenuto. — [03:30].
12. — Variazione IV. Andante grazioso. — [01:49].
13. — Variazione V. Allegro moderato. — [03:20].
14. — Variazione VI. Andante. — [02:29].
15. — Variazione VII e coda. Allegro vivo [02:15].-Исполнители:
Alban Gerhardt (виолончель).
Deutsches Symphonie-Orchester Berlin.
Дирижер Stefan Blunier.-

Динамический диапазон

foobar2000 1.3.8 / Dynamic Range Meter 1.1.1
log date: 2015-10-23 14:45:26
--------------------------------------------------------------------------------
Analyzed: Alban Gerhardt; Stefan Blunier: Deutsches Symphonie-Orchester Berlin / Fitzenhagen: Cello Concertos
--------------------------------------------------------------------------------
DR Peak RMS Duration Track
--------------------------------------------------------------------------------
DR15 -1.41 dB -23.47 dB 7:54 01-Fitzenhagen – Cello Concerto No. 1 in B minor, Op. 2 – I. Allegro moderato –
DR12 -10.33 dB -27.78 dB 3:22 02-Fitzenhagen – Cello Concerto No. 1 in B minor, Op. 2 – II. Andante –
DR14 -0.75 dB -22.34 dB 5:24 03-Fitzenhagen – Cello Concerto No. 1 in B minor, Op. 2 – III. Allegro (quasi allegretto)
DR15 -1.25 dB -22.65 dB 6:57 04-Fitzenhagen – Cello Concerto No. 2 in A minor 'Fantastique', Op. 4 – I. Maestoso
DR16 -3.35 dB -26.44 dB 4:14 05-Fitzenhagen – Cello Concerto No. 2 in A minor 'Fantastique', Op. 4 – II. Andante –
DR16 -1.17 dB -23.23 dB 8:13 06-Fitzenhagen – Cello Concerto No. 2 in A minor 'Fantastique', Op. 4 – III. Allegro moderato
DR12 -14.17 dB -31.56 dB 0:50 07-Tchaikovsky (arr. Fitzenhagen) – Variations on a Rococo theme, Op. 33 – Introduction. Moderato quasi andante –
DR11 -16.00 dB -31.23 dB 1:29 08-Tchaikovsky (arr. Fitzenhagen) – Variations on a Rococo theme, Op. 33 – Thema. Moderato semplice –
DR12 -14.02 dB -30.46 dB 0:50 09-Tchaikovsky (arr. Fitzenhagen) – Variations on a Rococo theme, Op. 33 – Variation 1. Tempo della thema –
DR13 -12.04 dB -29.22 dB 1:18 10-Tchaikovsky (arr. Fitzenhagen) – Variations on a Rococo theme, Op. 33 – Variation 2. Tempo della thema –
DR14 -8.08 dB -29.92 dB 3:30 11-Tchaikovsky (arr. Fitzenhagen) – Variations on a Rococo theme, Op. 33 – Variation 3. Andante sostenuto –
DR11 -13.38 dB -29.94 dB 1:49 12-Tchaikovsky (arr. Fitzenhagen) – Variations on a Rococo theme, Op. 33 – Variation 4. Andante grazioso –
DR14 -8.59 dB -28.66 dB 3:20 13-Tchaikovsky (arr. Fitzenhagen) – Variations on a Rococo theme, Op. 33 – Variation 5. Allegro moderato –
DR12 -15.44 dB -35.53 dB 2:29 14-Tchaikovsky (arr. Fitzenhagen) – Variations on a Rococo theme, Op. 33 – Variation 6. Andante –
DR14 -4.17 dB -24.93 dB 2:15 15-Tchaikovsky (arr. Fitzenhagen) – Variations on a Rococo theme, Op. 33 – Variation 7 and Coda. Allegro vivo
DR16 -2.12 dB -24.00 dB 17:05 16-Fitzenhagen – Ballade (Concertstuck), Op. 10
DR12 -12.82 dB -29.49 dB 3:59 17-Fitzenhagen – Resignation (Ein geistliches Lied ohne Worte), Op. 8
--------------------------------------------------------------------------------
Number of tracks: 17
Official DR value: DR14
Samplerate: 48000 Hz
Channels: 2
Bits per sample: 24
Bitrate: 1259 kbps
Codec: FLAC
================================================================================
[teatrix.ru].t22501.torrent 
Торрент: Зарегистрирован [ 2016-03-21 00:09 ] · 5CB789AF7E4EA3723D139015FFC8755554F84F92

Скачать .torrent

Скачать

17 KB

Статус: проверено
Скачан: 0 раз
Размер: 725 MB
terms.php



Быстрый ответ

Имя:

      
Для отправки сообщений необходимо включить JavaScript
Показать сообщения:    

Текущее время: 03-Дек 09:48

Часовой пояс: UTC + 3


Вы можете начинать темы
Вы можете отвечать на сообщения
Вы не можете редактировать свои сообщения
Вы не можете удалять свои сообщения
Вы не можете голосовать в опросах
Вы не можете прикреплять файлы к сообщениям
Вы можете скачивать файлы