Музыка для свадеб и похорон / Musikk for bryllup og begravelser / Music for Weddings and Funerals (Унни Страуме / Unni Straume) [2002, Норвегия, Швеция, драма, DVDRip] VO + Sub Nor


Статистика раздачи [Обновить пиров]
Размер:  635 MB   |    Зарегистрирован:  8 месяцев 21 день   |    Скачан:  0 раз

Полного источника не было: Никогда

 
   
 
 
 

[Цитировать]

Музыка для свадеб и похорон / Musikk for bryllup og begravelser / Music for Weddings and Funerals
Страна: Норвегия, Швеция
Жанр: драма
Год выпуска: 2002
Продолжительность: 01:33:20
Перевод: Одноголосый закадровый
Cубтитры: норвежские
Оригинальная аудиодорожка: нет
Режиссер: Унни Страуме / Unni Straume
В ролях: Лена Эндре (...Сара), Бьёрн Флоберг (...Петер), Петронелла Баркер (...Хелен), Ребека Хемсе (...Кайя), Горан Брегович (...Богдан), Кристоффер Йонер (...метродотель в гостинице), Венке Фосс (...мать Петера) и др.
Описание: После смерти единственного сына и развода, писательница Сара поселяется у моря в строгом и холодном доме, спроектированном её бывшим мужем-архитектором. Здесь она снова обретает желание жить и интерес к человеческому обществу. Она сдаёт в аренду подвал югославскому беженцу по имени Богдан. Он музыкант, и вместе с ним в доме и в жизни Сары появлется его оркестр…
Сэмпл: http://multi-up.com/1072524
Качество видео: DVDRip
Формат видео: AVI
Видео: XVID, 720*404, 16:9, 29.970 fps, 748 kbps
Аудио: mp3, 48.0 KHz, 192 kbps, 2 ch, русский, озвучка PiterVV по субтитрам hurin
Формат субтитров: hardsub (неотключаемые)

MediaInfo

General
Complete name : D:\Большой день\A_WONDERFUL_WORLD\музыка для свадеб и похорон PiterVV.avi
Format : AVI
Format/Info : Audio Video Interleave
File size : 635 MiB
Duration : 1h 33mn
Overall bit rate : 951 Kbps
Writing application : VirtualDubMod 1.5.10.2 (build 2540/release)
Writing library : VirtualDubMod build 2540/release
Video
ID : 0
Format : MPEG-4 Visual
Format profile : Advanced Simple@L5
Format settings, BVOP : 2
Format settings, QPel : No
Format settings, GMC : No warppoints
Format settings, Matrix : Default (H.263)
Codec ID : XVID
Codec ID/Hint : XviD
Duration : 1h 33mn
Bit rate : 748 Kbps
Width : 720 pixels
Height : 404 pixels
Display aspect ratio : 16:9
Original display aspect ratio : 16:9
Frame rate : 29.970 fps
Color space : YUV
Chroma subsampling : 4:2:0
Bit depth : 8 bits
Scan type : Progressive
Compression mode : Lossy
Bits/(Pixel*Frame) : 0.086
Stream size : 499 MiB (79%)
Writing library : XviD 1.2.1 (UTC 2008-12-04)
Audio
ID : 1
Format : MPEG Audio
Format version : Version 1
Format profile : Layer 3
Codec ID : 55
Codec ID/Hint : MP3
Duration : 1h 33mn
Bit rate mode : Constant
Bit rate : 192 Kbps
Channel(s) : 2 channels
Sampling rate : 48.0 KHz
Compression mode : Lossy
Stream size : 128 MiB (20%)
Alignment : Aligned on interleaves
Interleave, duration : 33 ms (1.00 video frame)
Interleave, preload duration : 504 ms
Writing library : LAME3.99.5

Скриншоты

[teatrix.ru].t22502.torrent 
Торрент: Зарегистрирован [ 2016-03-21 00:09 ] · FB988C08D131F149C7B51F2F1AD2C08C909597F4

Скачать .torrent

Скачать

13 KB

Статус: проверено
Скачан: 0 раз
Размер: 635 MB
terms.php



Быстрый ответ

Имя:

      
Для отправки сообщений необходимо включить JavaScript
Показать сообщения:    

Текущее время: 11-Дек 07:14

Часовой пояс: UTC + 3


Вы можете начинать темы
Вы можете отвечать на сообщения
Вы не можете редактировать свои сообщения
Вы не можете удалять свои сообщения
Вы не можете голосовать в опросах
Вы не можете прикреплять файлы к сообщениям
Вы можете скачивать файлы