(Classical) Henry Purcell - Ten Sonatas in Four Parts - Retrospect Trio - 2009, FLAC (image+.cue) lossless


 

[Цитировать]

Henry Purcell - Ten Sonatas in Four Parts - Retrospect Trio
Жанр: Classical
Страна-производитель диска: UK
Год издания диска: 2009
Издатель (лейбл): Linn Records
Номер по каталогу: CKD 332
Дата записи: 2008
Аудиокодек: FLAC
Тип рипа: image+.cue
Битрейт аудио: lossless
Продолжительность: 73:16
Источник: собственный рип
Наличие сканов в содержимом раздачи: да
Треклист:
Henry Purcell
Ten Sonatas in Four Parts
[1]-[4] Sonata I in B minor
[5]-[9] Sonata II in E flat major
[10]-[14] Sonata III in A minor
[15]-[19] Sonata IV in D minor
[20]-[26] Sonata V in G minor
[27] Sonata VI in G minor
[28]-[33] Sonata VII in C major
[34]-[38] Sonata VIII in G minor
[39]-[43] Sonata IX in F major
[44]-[48] Sonata X in D major
Исполнители:
Retrospect Trio
Sophie Gent violin
Matthew Truscott violin
Jonathan Manson bass viol
Matthew Halls harpsichord/organ

Лог создания рипа

Exact Audio Copy V1.1 from 23. June 2015
EAC extraction logfile from 15. October 2015, 22:27
Retrospect Trio / Purcell - Ten Sonatas in Four Parts
Used drive : HL-DT-STDVDRAM GU70N Adapter: 1 ID: 0
Read mode : Secure
Utilize accurate stream : Yes
Defeat audio cache : Yes
Make use of C2 pointers : No
Read offset correction : 48
Overread into Lead-In and Lead-Out : No
Fill up missing offset samples with silence : Yes
Delete leading and trailing silent blocks : No
Null samples used in CRC calculations : Yes
Used interface : Native Win32 interface for Win NT & 2000
Used output format : User Defined Encoder
Selected bitrate : 128 kBit/s
Quality : High
Add ID3 tag : No
Command line compressor : C:\Program Files (x86)\Exact Audio Copy\Flac\flac.exe
Additional command line options : -V -8 -T "Date=%year%" -T "Genre=%genre%" %source%
TOC of the extracted CD
Track | Start | Length | Start sector | End sector
---------------------------------------------------------
1 | 0:00.00 | 0:48.26 | 0 | 3625
2 | 0:48.26 | 1:19.57 | 3626 | 9607
3 | 2:08.08 | 2:10.66 | 9608 | 19423
4 | 4:18.74 | 2:09.28 | 19424 | 29126
5 | 6:28.27 | 1:25.74 | 29127 | 35575
6 | 7:54.26 | 2:07.31 | 35576 | 45131
7 | 10:01.57 | 1:38.39 | 45132 | 52520
8 | 11:40.21 | 1:00.19 | 52521 | 57039
9 | 12:40.40 | 1:13.28 | 57040 | 62542
10 | 13:53.68 | 1:27.59 | 62543 | 69126
11 | 15:21.52 | 1:31.38 | 69127 | 75989
12 | 16:53.15 | 1:17.61 | 75990 | 81825
13 | 18:11.01 | 1:20.12 | 81826 | 87837
14 | 19:31.13 | 1:40.25 | 87838 | 95362
15 | 21:11.38 | 2:09.47 | 95363 | 105084
16 | 23:21.10 | 1:25.59 | 105085 | 111518
17 | 24:46.69 | 0:51.06 | 111519 | 115349
18 | 25:38.00 | 1:51.07 | 115350 | 123681
19 | 27:29.07 | 2:08.03 | 123682 | 133284
20 | 29:37.10 | 1:44.65 | 133285 | 141149
21 | 31:22.00 | 1:05.37 | 141150 | 146061
22 | 32:27.37 | 2:42.53 | 146062 | 158264
23 | 35:10.15 | 0:44.14 | 158265 | 161578
24 | 35:54.29 | 0:16.43 | 161579 | 162821
25 | 36:10.72 | 1:28.59 | 162822 | 169480
26 | 37:39.56 | 0:41.08 | 169481 | 172563
27 | 38:20.64 | 7:19.31 | 172564 | 205519
28 | 45:40.20 | 1:03.23 | 205520 | 210267
29 | 46:43.43 | 1:08.64 | 210268 | 215431
30 | 47:52.32 | 0:36.72 | 215432 | 218203
31 | 48:29.29 | 1:28.73 | 218204 | 224876
32 | 49:58.27 | 1:35.70 | 224877 | 232071
33 | 51:34.22 | 1:00.70 | 232072 | 236641
34 | 52:35.17 | 1:48.53 | 236642 | 244794
35 | 54:23.70 | 1:22.10 | 244795 | 250954
36 | 55:46.05 | 0:38.41 | 250955 | 253845
37 | 56:24.46 | 3:16.49 | 253846 | 268594
38 | 59:41.20 | 0:42.13 | 268595 | 271757
39 | 60:23.33 | 1:02.71 | 271758 | 276478
40 | 61:26.29 | 1:19.20 | 276479 | 282423
41 | 62:45.49 | 1:50.12 | 282424 | 290685
42 | 64:35.61 | 1:15.08 | 290686 | 296318
43 | 65:50.69 | 1:28.32 | 296319 | 302950
44 | 67:19.26 | 1:17.14 | 302951 | 308739
45 | 68:36.40 | 1:31.53 | 308740 | 315617
46 | 70:08.18 | 1:19.09 | 315618 | 321551
47 | 71:27.27 | 0:49.72 | 321552 | 325298
48 | 72:17.24 | 0:56.50 | 325299 | 329548
Range status and errors
Selected range
Filename C:\temp\Purcell - Ten Sonatas in Four Parts - Retrospect Trio\Purcell - Ten Sonatas in Four Parts.wav
Peak level 97.0 %
Extraction speed 2.3 X
Range quality 100.0 %
Test CRC 5F5F6C6A
Copy CRC 5F5F6C6A
Copy OK
No errors occurred
AccurateRip summary
Track 1 accurately ripped (confidence 13) [D671E6D9] (AR v2)
Track 2 accurately ripped (confidence 13) [6568BCAF] (AR v2)
Track 3 accurately ripped (confidence 13) [9350E448] (AR v2)
Track 4 accurately ripped (confidence 13) [B7616EE3] (AR v2)
Track 5 accurately ripped (confidence 13) [EF5AA5D7] (AR v2)
Track 6 accurately ripped (confidence 13) [BC1FA0F9] (AR v2)
Track 7 accurately ripped (confidence 13) [58DD1185] (AR v2)
Track 8 accurately ripped (confidence 13) [366C928D] (AR v2)
Track 9 accurately ripped (confidence 13) [0695C9FE] (AR v2)
Track 10 accurately ripped (confidence 13) [BB86B29C] (AR v2)
Track 11 accurately ripped (confidence 13) [D1C244E8] (AR v2)
Track 12 accurately ripped (confidence 13) [A7E87BBC] (AR v2)
Track 13 accurately ripped (confidence 13) [0D073CF0] (AR v2)
Track 14 accurately ripped (confidence 13) [DEC30FCA] (AR v2)
Track 15 accurately ripped (confidence 13) [EC2D2126] (AR v2)
Track 16 accurately ripped (confidence 13) [727945A2] (AR v2)
Track 17 accurately ripped (confidence 13) [D2F58A44] (AR v2)
Track 18 accurately ripped (confidence 13) [39E21110] (AR v2)
Track 19 accurately ripped (confidence 13) [3692046E] (AR v2)
Track 20 accurately ripped (confidence 13) [64783D9E] (AR v2)
Track 21 accurately ripped (confidence 13) [332A0586] (AR v2)
Track 22 accurately ripped (confidence 13) [3CECD2C0] (AR v2)
Track 23 accurately ripped (confidence 13) [9B1DB9A1] (AR v2)
Track 24 accurately ripped (confidence 13) [019FE007] (AR v2)
Track 25 accurately ripped (confidence 13) [CB8FB40B] (AR v2)
Track 26 accurately ripped (confidence 13) [29FC8433] (AR v2)
Track 27 accurately ripped (confidence 13) [A32E9B97] (AR v2)
Track 28 accurately ripped (confidence 13) [475E80D8] (AR v2)
Track 29 accurately ripped (confidence 13) [65F2B8C7] (AR v2)
Track 30 accurately ripped (confidence 13) [B5D978BF] (AR v2)
Track 31 accurately ripped (confidence 13) [79D90D5F] (AR v2)
Track 32 accurately ripped (confidence 13) [C5D67F0A] (AR v2)
Track 33 accurately ripped (confidence 13) [7A10B01D] (AR v2)
Track 34 accurately ripped (confidence 13) [D2F93332] (AR v2)
Track 35 accurately ripped (confidence 13) [51B316F7] (AR v2)
Track 36 accurately ripped (confidence 13) [DC3079DF] (AR v2)
Track 37 accurately ripped (confidence 13) [4DB1D642] (AR v2)
Track 38 accurately ripped (confidence 13) [5D8CEF33] (AR v2)
Track 39 accurately ripped (confidence 13) [37A932B6] (AR v2)
Track 40 accurately ripped (confidence 13) [9CDA15D0] (AR v2)
Track 41 accurately ripped (confidence 13) [FAE75182] (AR v2)
Track 42 accurately ripped (confidence 13) [6266F36D] (AR v2)
Track 43 accurately ripped (confidence 13) [43F6F8F6] (AR v2)
Track 44 accurately ripped (confidence 13) [EB21ED4B] (AR v2)
Track 45 accurately ripped (confidence 13) [464C6AED] (AR v2)
Track 46 accurately ripped (confidence 13) [42A83F1E] (AR v2)
Track 47 accurately ripped (confidence 13) [0D985679] (AR v2)
Track 48 accurately ripped (confidence 13) [52670084] (AR v2)
All tracks accurately ripped
End of status report
==== Log checksum B18212E00EE59B6947A7976B8C6E727F6AE9DE4149624C014938FF5539409850 ====



Показать сообщения:    

Текущее время: 10-Дек 11:57

Часовой пояс: UTC + 3


Вы не можете начинать темы
Вы не можете отвечать на сообщения
Вы не можете редактировать свои сообщения
Вы не можете удалять свои сообщения
Вы не можете голосовать в опросах
Вы не можете прикреплять файлы к сообщениям
Вы не можете скачивать файлы