Июньский змей / A Snake Of June / Rokugatsu No Hebi (Шинья Цукамото / Shinya Tsukamoto) [2002, Япония, драма, HDRip] AVO (Гранкин)


 

[Цитировать]

Июньский змей / A Snake Of June / Rokugatsu No Hebi
Страна: Япония
Жанр: драма
Год выпуска: 2002
Продолжительность: 01:42:07
Перевод: Авторский (одноголосый закадровый) [Евгений Гранкин]
Оригинальная аудиодорожка: нет
Cубтитры:нет
Режиссер: Шинья Цукамото / Shinya Tsukamoto
В ролях: Асука Куросава, Юдзи Котари, Синья Цукамото, Юкино Асай, Хира Дедзу, Койти Фудзита, Такэхиро Фукухара, Томоя Фукумото, Мансаку Фува, Тэруко Ханахара
Описание:Ринко Тацуми — тихая, замкнутая женщина тридцати с лишним лет. Она работает психологом на телефоне доверия в окружной психиатрической клинике. Она очень талантливый психолог, а ее муж Сигехико — крупный бизнесмен. У них нет детей.
Июнь, сезон дождей в Японии. Однажды, в сырой неприветливый день Ринко получает странное письмо в конверте с надписью: «Секреты вашего мужа»…
Релиз:

Качество: HDRip
Контейнер: AVI
Видео: 720x544 (1.32:1), 23.976 fps, XviD build 50 ~1212 kbps avg, 0.13 bit/pixel
Аудио: 48 kHz, MPEG Layer 3, 2 ch, ~128.00 kbps avg

MI

Общее
Полное имя : D:\Мои рипы\Июньский Змей_HDRip_Некул.avi
Формат : AVI
Формат/Информация : Audio Video Interleave
Размер файла : 742 Мбайт
Продолжительность : 1 ч. 16 м.
Общий поток : 1349 Кбит/сек
Программа кодирования : VirtualDubMod 1.5.10.3 | www.virtualdub-fr.org || (build 2550/release)
Библиотека кодирования : VirtualDubMod build 2550/release
Видео
Идентификатор : 0
Формат : MPEG-4 Visual
Профиль формата : Advanced Simple@L5
Параметр BVOP формата : 2
Параметр QPel формата : Нет
Параметр GMC формата : Без точки перехода
Параметр матрицы формата : Default (MPEG)
Идентификатор кодека : DX50
Идентификатор кодека/Подсказка : DivX 5
Продолжительность : 1 ч. 16 м.
Битрейт : 1212 Кбит/сек
Ширина : 720 пикселей
Высота : 544 пикселя
Соотношение сторон : 4:3
Частота кадров : 23,976 кадра/сек
Цветовое пространство : YUV
Субдискретизация насыщенности : 4:2:0
Битовая глубина : 8 бит
Тип развёртки : Прогрессивная
Метод сжатия : С потерями
Бит/(Пиксели*Кадры) : 0.129
Размер потока : 667 Мбайт (90%)
Библиотека кодирования : XviD 1.2.1 (UTC 2008-12-04)
Аудио
Идентификатор : 1
Формат : MPEG Audio
Версия формата : Version 1
Профиль формата : Layer 3
Идентификатор кодека : 55
Идентификатор кодека/Подсказка : MP3
Продолжительность : 1 ч. 16 м.
Вид битрейта : Постоянный
Битрейт : 128 Кбит/сек
Каналы : 2 канала
Частота : 48,0 КГц
Метод сжатия : С потерями
Размер потока : 70,4 Мбайт (9%)
Выравнивание : Соединение по промежуткам
Продолжительность промежутка : 42 мс. (1,00 видеокадр)
Время предзагрузки промежутка : 504 мс.
Библиотека кодирования : LAME3.99r
Настройки программы : -m s -V 4 -q 2 -lowpass 17 -b 128

Скриншоты




Показать сообщения:    

Текущее время: 05-Дек 13:33

Часовой пояс: UTC + 3


Вы не можете начинать темы
Вы не можете отвечать на сообщения
Вы не можете редактировать свои сообщения
Вы не можете удалять свои сообщения
Вы не можете голосовать в опросах
Вы не можете прикреплять файлы к сообщениям
Вы не можете скачивать файлы