(Classical) Alfredo Catalani - Ero e Leandro; Contemplazione; Il Mattino - Orchestra Sinfonica di Roma, Francesco La Vecchia - 2014, FLAC (image+.cue) lossless


 

[Цитировать]

Alfredo Catalani - Ero e Leandro; Contemplazione; Il Mattino - Orchestra Sinfonica di Roma, Francesco La Vecchia
Жанр: Classical
Год издания диска: 2014
Издатель (лейбл): Naxos
Номер по каталогу: 8.573072
Дата записи: 2011, 2012
Аудиокодек: FLAC
Тип рипа: image+.cue
Битрейт аудио: lossless
Продолжительность: 54:48
Источник: собственный рип
Наличие сканов в содержимом раздачи: да
Треклист:
Alfredo Catalani (1854-1893)
[1] Ero e Leandro (Hero and Leander) – Symphonic Poem (1884)
[2] Scherzo (1878)
[3] Andantino (?1871)*
[4] Contemplazione (1878)
[5] Il Mattino ‘Sinfonia romantica’ (1874)*
* WORLD PREMIERE RECORDINGS
Исполнители:
Orchestra Sinfonica di Roma
Francesco La Vecchia

Лог создания рипа

Exact Audio Copy V1.1 from 23. June 2015
EAC extraction logfile from 20. October 2015, 2:24
The Orchestra Sinfonica di Roma, Francesco La Vecchia / Catalani - Ero e Leandro; Contemplazione; Il Mattino
Used drive : HL-DT-STDVDRAM GU70N Adapter: 1 ID: 0
Read mode : Secure
Utilize accurate stream : Yes
Defeat audio cache : Yes
Make use of C2 pointers : No
Read offset correction : 48
Overread into Lead-In and Lead-Out : No
Fill up missing offset samples with silence : Yes
Delete leading and trailing silent blocks : No
Null samples used in CRC calculations : Yes
Used interface : Native Win32 interface for Win NT & 2000
Used output format : User Defined Encoder
Selected bitrate : 128 kBit/s
Quality : High
Add ID3 tag : No
Command line compressor : C:\Program Files (x86)\Exact Audio Copy\Flac\flac.exe
Additional command line options : -V -8 -T "Date=%year%" -T "Genre=%genre%" %source%
TOC of the extracted CD
Track | Start | Length | Start sector | End sector
---------------------------------------------------------
1 | 0:00.00 | 18:16.48 | 0 | 82247
2 | 18:16.48 | 5:36.29 | 82248 | 107476
3 | 23:53.02 | 4:44.12 | 107477 | 128788
4 | 28:37.14 | 11:35.64 | 128789 | 180977
5 | 40:13.03 | 14:32.72 | 180978 | 246449
Range status and errors
Selected range
Filename C:\temp\Catalani - Ero e Leandro; Contemplazione; Il Mattino\Catalani - Ero e Leandro; Contemplazione; Il Mattino.wav
Peak level 99.1 %
Extraction speed 5.0 X
Range quality 100.0 %
Test CRC E3BF214C
Copy CRC E3BF214C
Copy OK
No errors occurred
AccurateRip summary
Track 1 accurately ripped (confidence 3) [41C3CFF5] (AR v2)
Track 2 accurately ripped (confidence 3) [96446E0A] (AR v2)
Track 3 accurately ripped (confidence 3) [1EEE0B78] (AR v2)
Track 4 accurately ripped (confidence 3) [BE3CFD57] (AR v2)
Track 5 accurately ripped (confidence 3) [98679306] (AR v2)
All tracks accurately ripped
End of status report
==== Log checksum BE24B418E30730A1026088E1107C8789A020E0D40E1F5328BCA3389A45F29E6E ====



Показать сообщения:    

Текущее время: 18-Янв 02:32

Часовой пояс: UTC + 3


Вы не можете начинать темы
Вы не можете отвечать на сообщения
Вы не можете редактировать свои сообщения
Вы не можете удалять свои сообщения
Вы не можете голосовать в опросах
Вы не можете прикреплять файлы к сообщениям
Вы не можете скачивать файлы