(Classical) Puccini, Gounod, Massenet, Verdi - Il Bel Sogno - Opera Arias (Inva Mula, Ivo Lipanovic, Zagreb Philharmonic Orchestra) - 2009, FLAC (tracks+.cue) lossless


 

[Цитировать]

Inva Mula - Il Bel Sogno - Opera Arias
Жанр: Classical
Год издания диска: 2009
Издатель (лейбл): Virgin
Номер по каталогу: 50999 6 94538 09
Дата записи: 2009
Аудиокодек: FLAC
Тип рипа: tracks+.cue
Битрейт аудио: lossless
Продолжительность: 01:16:53
Источник: собственный рип
Наличие сканов в содержимом раздачи: да
Исполнители:
Inva Mula
Zagreb Philharmonic Orchestra
Ivo Lipanovic

Треклист:

Giacomo Puccini
01. La Rondine - Chi I Be Songno Di Doretta (03:18)
02. La Boheme - Si. Mi Chiamano Mimi (04:51)
03. Donde Lieta (03:17)
04. Gianni Schicchi - O Mio Babbino Caro (02:37)
Charles Gounod
05. Mireille - Trahir Vincent (05:44)
06. Voici la Vaste (08:10)
Jules Massenet
07. Manon - Act 2. Allons, Il Le Faut ... Adieu, Notre Petite Table (04:39)
Charles Gounod
08. Faust - Le Roi de Thule, Air Des Bijous (11:15)
09. Il Ne Revien Pas (05:41)
Jules Massenet
10. Thais - Air de Miroir (07:50)
Giuseppe Verdi
11. La Traviata - Addio del Passato (07:46)
12. E Strano....Sempre Libera (11:45)
-

LOG EAC:

Exact Audio Copy V1.0 beta 3 from 29. August 2011
EAC extraction logfile from 21. October 2015, 18:11
Inva Mula / Il Bel Sogno - Opera Arias
Used drive : PIONEER DVD-RW DVR-221L Adapter: 2 ID: 0
Read mode : Secure
Utilize accurate stream : Yes
Defeat audio cache : Yes
Make use of C2 pointers : No
Read offset correction : 6
Overread into Lead-In and Lead-Out : No
Fill up missing offset samples with silence : Yes
Delete leading and trailing silent blocks : No
Null samples used in CRC calculations : Yes
Used interface : Installed external ASPI interface
Gap handling : Appended to previous track
Used output format : User Defined Encoder
Selected bitrate : 768 kBit/s
Quality : High
Add ID3 tag : No
Command line compressor : C:\Program Files\Exact Audio Copy\Flac\flac.exe
Additional command line options : -6 -V -T "ARTIST=%artist%" -T "TITLE=%title%" -T "ALBUM=%albumtitle%" -T "DATE=%year%" -T "TRACKNUMBER=%tracknr%" -T "GENRE=%genre%" -T "COMMENT=%comment%" -T "ALBUMARTIST=%albuminterpret%" -T "COMPOSER=%composer%" -T "DISCNUMBER=%cdnumber%" -T "TOTALDISCS=%totalcds%" -T "TOTALTRACKS=%numtracks%" %source% -o %dest%
TOC of the extracted CD
Track | Start | Length | Start sector | End sector
---------------------------------------------------------
1 | 0:00.00 | 3:18.31 | 0 | 14880
2 | 3:18.31 | 4:51.07 | 14881 | 36712
3 | 8:09.38 | 3:17.27 | 36713 | 51514
4 | 11:26.65 | 2:37.05 | 51515 | 63294
5 | 14:03.70 | 5:44.10 | 63295 | 89104
6 | 19:48.05 | 8:10.28 | 89105 | 125882
7 | 27:58.33 | 4:39.20 | 125883 | 146827
8 | 32:37.53 | 11:15.14 | 146828 | 197466
9 | 43:52.67 | 5:40.43 | 197467 | 223009
10 | 49:33.35 | 7:50.22 | 223010 | 258281
11 | 57:23.57 | 7:46.11 | 258282 | 293242
12 | 65:09.68 | 11:45.03 | 293243 | 346120
Track 1
Filename D:\EAC\01 - Giacomo Puccini. La Rondine - Chi I Be Songno Di Doretta.wav
Pre-gap length 0:00:02.00
Peak level 91.4 %
Extraction speed 4.5 X
Track quality 100.0 %
Test CRC 99FBB76B
Copy CRC 99FBB76B
Accurately ripped (confidence 4) [6F4DE4D7] (AR v2)
Copy OK
Track 2
Filename D:\EAC\02 - La Boheme - Sì. Mi Chiamano Mimì.wav
Peak level 93.8 %
Extraction speed 5.3 X
Track quality 100.0 %
Test CRC EEC0E778
Copy CRC EEC0E778
Accurately ripped (confidence 4) [E4B256C3] (AR v2)
Copy OK
Track 3
Filename D:\EAC\03 - Donde Lieta.wav
Peak level 94.4 %
Extraction speed 5.5 X
Track quality 100.0 %
Test CRC F3B8F99A
Copy CRC F3B8F99A
Accurately ripped (confidence 4) [35E5FCF5] (AR v2)
Copy OK
Track 4
Filename D:\EAC\04 - Gianni Schicchi - O Mio Babbino Caro.wav
Peak level 75.9 %
Extraction speed 5.4 X
Track quality 100.0 %
Test CRC FA2B200E
Copy CRC FA2B200E
Accurately ripped (confidence 4) [4998EFD1] (AR v2)
Copy OK
Track 5
Filename D:\EAC\05 - Charles Gounod. Mireille - Trahir Vincent.wav
Peak level 93.5 %
Extraction speed 6.5 X
Track quality 100.0 %
Test CRC B85E92E0
Copy CRC B85E92E0
Accurately ripped (confidence 4) [2E07D373] (AR v2)
Copy OK
Track 6
Filename D:\EAC\06 - Voici la Vaste.wav
Peak level 96.0 %
Extraction speed 6.6 X
Track quality 99.9 %
Test CRC E6F6F389
Copy CRC E6F6F389
Accurately ripped (confidence 4) [0223B682] (AR v2)
Copy OK
Track 7
Filename D:\EAC\07 - Jules Massenet. Manon - Act 2. Allons, Il Le Faut ... Adieu, Notre Petite Table.wav
Pre-gap length 0:00:00.01
Peak level 92.3 %
Extraction speed 7.5 X
Track quality 100.0 %
Test CRC 99EB468B
Copy CRC 99EB468B
Accurately ripped (confidence 4) [6A03285D] (AR v2)
Copy OK
Track 8
Filename D:\EAC\08 - Charles Gounod. Faust - Le Roi de Thule, Air Des Bijous.wav
Peak level 81.0 %
Extraction speed 8.6 X
Track quality 100.0 %
Test CRC 101B449E
Copy CRC 101B449E
Accurately ripped (confidence 4) [43596CD4] (AR v2)
Copy OK
Track 9
Filename D:\EAC\09 - Il Ne Revien Pas.wav
Peak level 92.3 %
Extraction speed 8.7 X
Track quality 100.0 %
Test CRC C295B885
Copy CRC C295B885
Accurately ripped (confidence 4) [97CA59E4] (AR v2)
Copy OK
Track 10
Filename D:\EAC\10 - Jules Massenet. Thais - Air de Miroir.wav
Peak level 88.2 %
Extraction speed 9.4 X
Track quality 100.0 %
Test CRC C082B51A
Copy CRC C082B51A
Accurately ripped (confidence 4) [DD50BAC3] (AR v2)
Copy OK
Track 11
Filename D:\EAC\11 - Giuseppe Verdi. La Traviata - Addio del Passato.wav
Peak level 71.4 %
Extraction speed 9.9 X
Track quality 100.0 %
Test CRC 4E779F90
Copy CRC 4E779F90
Accurately ripped (confidence 4) [4BE56047] (AR v2)
Copy OK
Track 12
Filename D:\EAC\12 - E Strano....Sempre Libera.wav
Peak level 88.5 %
Extraction speed 10.8 X
Track quality 100.0 %
Test CRC FDDBCEBF
Copy CRC FDDBCEBF
Accurately ripped (confidence 4) [234A3E51] (AR v2)
Copy OK
All tracks accurately ripped
No errors occurred
End of status report
==== Log checksum BE36F8F741B7D2559DD81E162E566786A21E1F4701E0AE44AAD66AED1F4904DD ====

LOG (.CUE):

REM GENRE Classical
REM DATE 2009
REM DISCID AF12060C
REM COMMENT "ExactAudioCopy v1.0b3"
PERFORMER "Inva Mula"
TITLE "Il Bel Sogno - Opera Arias"
FILE "01 - Giacomo Puccini. La Rondine - Chi I Be Songno Di Doretta.wav" WAVE
TRACK 01 AUDIO
TITLE "Giacomo Puccini. La Rondine - Chi I Be Songno Di Doretta"
PERFORMER "Inva Mula"
INDEX 01 00:00:00
FILE "02 - La Boheme - Si. Mi Chiamano Mimi.wav" WAVE
TRACK 02 AUDIO
TITLE "La Boheme - Si. Mi Chiamano Mimi"
PERFORMER "Inva Mula"
INDEX 01 00:00:00
FILE "03 - Donde Lieta.wav" WAVE
TRACK 03 AUDIO
TITLE "Donde Lieta"
PERFORMER "Inva Mula"
INDEX 01 00:00:00
FILE "04 - Gianni Schicchi - O Mio Babbino Caro.wav" WAVE
TRACK 04 AUDIO
TITLE "Gianni Schicchi - O Mio Babbino Caro"
PERFORMER "Inva Mula"
INDEX 01 00:00:00
FILE "05 - Charles Gounod. Mireille - Trahir Vincent.wav" WAVE
TRACK 05 AUDIO
TITLE "Charles Gounod. Mireille - Trahir Vincent"
PERFORMER "Inva Mula"
INDEX 01 00:00:00
FILE "06 - Voici la Vaste.wav" WAVE
TRACK 06 AUDIO
TITLE "Voici la Vaste"
PERFORMER "Inva Mula"
INDEX 01 00:00:00
TRACK 07 AUDIO
TITLE "Jules Massenet. Manon - Act 2. Allons, Il Le Faut ... Adieu, Notre Petite Table"
PERFORMER "Inva Mula"
INDEX 00 08:10:27
FILE "07 - Jules Massenet. Manon - Act 2. Allons, Il Le Faut ... Adieu, Notre Petite Table.wav" WAVE
INDEX 01 00:00:00
FILE "08 - Charles Gounod. Faust - Le Roi de Thule, Air Des Bijous.wav" WAVE
TRACK 08 AUDIO
TITLE "Charles Gounod. Faust - Le Roi de Thule, Air Des Bijous"
PERFORMER "Inva Mula"
INDEX 01 00:00:00
FILE "09 - Il Ne Revien Pas.wav" WAVE
TRACK 09 AUDIO
TITLE "Il Ne Revien Pas"
PERFORMER "Inva Mula"
INDEX 01 00:00:00
FILE "10 - Jules Massenet. Thais - Air de Miroir.wav" WAVE
TRACK 10 AUDIO
TITLE "Jules Massenet. Thais - Air de Miroir"
PERFORMER "Inva Mula"
INDEX 01 00:00:00
FILE "11 - Giuseppe Verdi. La Traviata - Addio del Passato.wav" WAVE
TRACK 11 AUDIO
TITLE "Giuseppe Verdi. La Traviata - Addio del Passato"
PERFORMER "Inva Mula"
INDEX 01 00:00:00
FILE "12 - E Strano....Sempre Libera.wav" WAVE
TRACK 12 AUDIO
TITLE "E Strano....Sempre Libera"
PERFORMER "Inva Mula"
INDEX 01 00:00:00
-



Показать сообщения:    

Текущее время: 08-Дек 12:54

Часовой пояс: UTC + 3


Вы не можете начинать темы
Вы не можете отвечать на сообщения
Вы не можете редактировать свои сообщения
Вы не можете удалять свои сообщения
Вы не можете голосовать в опросах
Вы не можете прикреплять файлы к сообщениям
Вы не можете скачивать файлы