(Classical/Minimalism) Philip Glass - String Quartet No.5, Suite from 'Dracula', String Sextet (O'Duill, Rosefield, Carducci Quartet) - 2015, FLAC (image+.cue) lossless


 

[Цитировать]

Philip Glass - String Quartet No.5
Жанр: Classical/Minimalism
Страна-производитель диска: USA
Год издания диска: 2015
Издатель (лейбл): Naxos
Номер по каталогу: 8.559766
Дата записи: 14&15.XII.2013
Аудиокодек: FLAC
Тип рипа: image+.cue
Битрейт аудио: lossless
Продолжительность: 1:05'09"
Источник: собственный рип
Наличие сканов в содержимом раздачи: да
Треклист:
String Quartet No.5
01. I.
02. II.
03. III.
04. IV.
05. V.
Suite from 'Dracula' for string quartet
06. Titles
07. Journey to the Inn
08. Excellent Mr Renfield
09. The Storm
10. In the Theater
11. Woman in White
12. Dr Van Helsing and Dracula
13. The End of Dracula
String Sextet (arr. by Michael Riesman from Symphony No.3)
14. I.
15. II.
16. III.
17. IV.
Исполнители:
Cian O'Duill, viola (14-17)
Gemma Rosefield, cello (14-17)
Carducci String Quartet-

Лог создания рипа

Exact Audio Copy V1.0 beta 4 from 7. December 2014
EAC extraction logfile from 25. October 2015, 13:31
Philip Glass / String Quartet No.5, Dracula, String Sextet
Used drive : TSSTcorpDVDWBD TS-LB23A Adapter: 1 ID: 0
Read mode : Secure
Utilize accurate stream : Yes
Defeat audio cache : Yes
Make use of C2 pointers : No
Read offset correction : 6
Overread into Lead-In and Lead-Out : No
Fill up missing offset samples with silence : Yes
Delete leading and trailing silent blocks : No
Null samples used in CRC calculations : Yes
Used interface : Native Win32 interface for Win NT & 2000
Used output format : User Defined Encoder
Selected bitrate : 128 kBit/s
Quality : High
Add ID3 tag : Yes
Command line compressor : C:\Program Files (x86)\Exact Audio Copy\Flac\flac.exe
Additional command line options : -T "COMMENT=Ripped by GFox" -V -8 %source%
TOC of the extracted CD
Track | Start | Length | Start sector | End sector
---------------------------------------------------------
1 | 0:00.00 | 1:16.18 | 0 | 5717
2 | 1:16.18 | 2:50.09 | 5718 | 18476
3 | 4:06.27 | 6:03.17 | 18477 | 45718
4 | 10:09.44 | 4:40.59 | 45719 | 66777
5 | 14:50.28 | 7:40.71 | 66778 | 101348
6 | 22:31.24 | 1:17.17 | 101349 | 107140
7 | 23:48.41 | 0:46.29 | 107141 | 110619
8 | 24:34.70 | 2:44.29 | 110620 | 122948
9 | 27:19.24 | 1:34.62 | 122949 | 130060
10 | 28:54.11 | 2:53.59 | 130061 | 143094
11 | 31:47.70 | 3:24.30 | 143095 | 158424
12 | 35:12.25 | 2:20.48 | 158425 | 168972
13 | 37:32.73 | 4:18.70 | 168973 | 188392
14 | 41:51.68 | 4:29.26 | 188393 | 208593
15 | 46:21.19 | 5:50.15 | 208594 | 234858
16 | 52:11.34 | 9:40.62 | 234859 | 278420
17 | 61:52.21 | 3:16.54 | 278421 | 293174
Range status and errors
Selected range
Filename D:\Downloads\Philip Glass - String Quartet No.5, Dracula, String Sextet.wav
Peak level 94.3 %
Extraction speed 1.7 X
Range quality 99.9 %
Test CRC D8534481
Copy CRC D8534481
Copy OK
No errors occurred
AccurateRip summary
Track 1 not present in database
Track 2 not present in database
Track 3 not present in database
Track 4 not present in database
Track 5 not present in database
Track 6 not present in database
Track 7 not present in database
Track 8 not present in database
Track 9 not present in database
Track 10 not present in database
Track 11 not present in database
Track 12 not present in database
Track 13 not present in database
Track 14 not present in database
Track 15 not present in database
Track 16 not present in database
Track 17 not present in database
None of the tracks are present in the AccurateRip database
End of status report
==== Log checksum C303B5183216BDCC5CF98DB278C96F71AFE5F91B0F15B194CCDA667CBF7F7B59 ====
-Доп. информация: В своё время выпущенная Naxos запись первых четырёх квартетов Гласса с Carducci Quartet благодаря своей насыщенной эмоциональности показалась мне лучшей трактовкой камерной музыки композитора. Прошло 5 лет, и Naxos, наконец, выпустил продолжение цикла, а также Сюиту из музыки к фильму 1931 года 'Дракула' и аранжировку Третьей симфонии для струнного секстета в столь же блестящем исполнении. В ожидании, пока Кроносы, наконец, запишут написанный специально для них Шестой квартет Гласса, это, пожалуй, лучший на сегодняшний день выбор квартетов композитора.
PS На заднике диска Третья симфония Гласса указана, как имеющая подзаголовок 'Heroes', что конечно же не соответствует действительности.
-



Показать сообщения:    

Текущее время: 10-Дек 13:49

Часовой пояс: UTC + 3


Вы не можете начинать темы
Вы не можете отвечать на сообщения
Вы не можете редактировать свои сообщения
Вы не можете удалять свои сообщения
Вы не можете голосовать в опросах
Вы не можете прикреплять файлы к сообщениям
Вы не можете скачивать файлы