(Classical) Мусоргский - Картинки с выставки, Песни и пляски смерти, Ночь на Лысой горе - 2015, В. Гергиев. Mussorgsky, Pictures at an exhibition, Songs & Dances of Death, Night on Bare mountain. Furlanetto, Gergiev. FLAC (image+.cue) lossless


 

[Цитировать]

Мусоргский - Картинки с выставки, Песни и пляски смерти, Ночь на Лысой горе
Жанр: Classical
Страна-производитель диска: Россия
Год издания диска: 2015
Издатель (лейбл): Mariinsky
Номер по каталогу: MAR0086
Дата записи: 2010-2014
Аудиокодек: FLAC
Тип рипа: image+.cue
Битрейт аудио: lossless
Продолжительность: 68.28
Источник: собственный рип
Наличие сканов в содержимом раздачи: да
Треклист:
Pictures at an Exhibition (orch. Ravel) / Картинки с выставки (оркестровка М. Равеля)
01. Promenade / Прогулка
02. No 1: Gnomus / Гном
03. Interlude: Promenade / Прогулка
04. No 2: Il vecchio cfstello / Старый Замок
05. Interlude: Promenade / Прогулка
06. No 3: Tuileries: Dispute d'enfants apres jeux / Тюильрийский Сад. Ссора детей после игры
07. No 4: Bydlo / Быдло
08. Interlude: Promenade / Прогулка
09. No 5: Ballet des poussins dans leurs coques / Балет невылупившихся птенцов
10. No 6: Samuel Goldenberg und Schmuyle / Два еврея, богатый и бедный
11. No 7: Limoges, le marche. La grande nouvelle / Лимож. Рынок. Большая новость
12. No 8: Catacombae. Sepulchrum Romanium / Катакомбы. Римская гробница
13. Cum mortuis in lingua mortua / С мёртвыми на мёртвом языке
14. No 9: La Cabane sur des Pattes de Poule, Baba-Iaga / Избушка на курьих ножках. Баба-Яга.
15. No 10: La grande porte de Kiev / Богатырские ворота. В стольном городе во Киеве
Song and Dances fo Death (orch. Shostakovich) / Песни и пляски смерти (оркестровка Д. Шостаковича)
16. I. Lullaby / Колыбельная
17. II. Serenade / Серенада
18. III. Trepak / Трепак
19. IV. The Field Marshal / Полководец
20. Night on Bare Mountain / Ночь на лысой горе
Исполнители:
Оркестр Мариинского театра, Санкт-Петербург, Россия. Дирижер Валерий Гергиев
Вокал - Ферруччо Фурланетто (бас)

Лог создания рипа

Exact Audio Copy V1.1 from 23. June 2015
Отчёт EAC об извлечении, выполненном 25. октября 2015, 22:15
Mariinsky Theatre Orchestra / Mussorgsky Pictures at an exhibition
Дисковод: Optiarc DVD RW AD-7560S Adapter: 1 ID: 0
Режим чтения : Достоверность
Использование точного потока : Да
Отключение кэша аудио : Нет
Использование указателей C2 : Нет
Комбинированное смещение чтения/записи : 0
Способность читать области Lead-in и Lead-out : Нет
Заполнение пропущенных сэмплов тишиной : Да
Удаление блоков с тишиной в начале и конце : Нет
При вычислениях CRC использовались нулевые сэмплы : Да
Интерфейс : Встроенный Win32-интерфейс для Win NT/2000
Выходной формат : Пользовательский кодировщик
Выбранный битрейт : 128 kBit/s
Качество : Высокий
Добавление ID3-тега : Да
Утилита сжатия : C:\Program Files\Exact Audio Copy\Flac\flac.exe
Дополнительные параметры : -V -8 -T "Date=%year%" -T "Genre=%genre%" %source%
TOC извлечённого CD
Трек | Старт | Длительность | Начальный сектор | Конечный сектор
---------------------------------------------------------------------
1 | 0:00.00 | 1:35.68 | 0 | 7192
2 | 1:35.68 | 2:30.74 | 7193 | 18516
3 | 4:06.67 | 0:55.48 | 18517 | 22689
4 | 5:02.40 | 5:26.29 | 22690 | 47168
5 | 10:28.69 | 0:31.04 | 47169 | 49497
6 | 10:59.73 | 1:09.25 | 49498 | 54697
7 | 12:09.23 | 3:01.46 | 54698 | 68318
8 | 15:10.69 | 0:50.74 | 68319 | 72142
9 | 16:01.68 | 1:09.41 | 72143 | 77358
10 | 17:11.34 | 2:30.42 | 77359 | 88650
11 | 19:42.01 | 1:14.46 | 88651 | 94246
12 | 20:56.47 | 2:24.21 | 94247 | 105067
13 | 23:20.68 | 2:17.13 | 105068 | 115355
14 | 25:38.06 | 3:17.45 | 115356 | 130175
15 | 28:55.51 | 5:45.44 | 130176 | 156094
16 | 34:41.20 | 5:00.23 | 156095 | 178617
17 | 39:41.43 | 5:00.38 | 178618 | 201155
18 | 44:42.06 | 5:12.62 | 201156 | 224617
19 | 49:54.68 | 5:42.43 | 224618 | 250310
20 | 55:37.36 | 12:50.39 | 250311 | 308099
Характеристики диапазона извлечения и сообщения об ошибках
Выбранный диапазон
Имя файла E:\Music\Modest Mussorgsky - Pictures at an Exhibition - Mariinsky\Mariinsky Theatre Orchestra - Mussorgsky Pictures at an exhibition.wav
Пиковый уровень 91.8 %
Скорость извлечения 4.9 X
Качество диапазона 100.0 %
CRC теста D3F6B545
CRC копии D3F6B545
Копирование... OK
Ошибок не произошло
Конец отчёта
---- CUETools DB Plugin V2.1.6
[CTDB TOCID: UdwORp3Jp7iDJNcz4QBfTWnO9tc-] found
Submit result: already submitted
Track | CTDB Status
1 | (1/9) Accurately ripped
2 | (1/9) Accurately ripped
3 | (1/9) Accurately ripped
4 | (1/9) Accurately ripped
5 | (1/9) Accurately ripped
6 | (1/9) Accurately ripped
7 | (1/9) Accurately ripped
8 | (1/9) Accurately ripped
9 | (1/9) Accurately ripped
10 | (1/9) Accurately ripped
11 | (1/9) Accurately ripped
12 | (1/9) Accurately ripped
13 | (1/9) Accurately ripped
14 | (1/9) Accurately ripped
15 | (1/9) Accurately ripped
16 | (1/9) Accurately ripped
17 | (1/9) Accurately ripped
18 | (1/9) Accurately ripped
19 | (1/9) Accurately ripped
20 | (1/9) Accurately ripped



Показать сообщения:    

Текущее время: 04-Дек 19:19

Часовой пояс: UTC + 3


Вы не можете начинать темы
Вы не можете отвечать на сообщения
Вы не можете редактировать свои сообщения
Вы не можете удалять свои сообщения
Вы не можете голосовать в опросах
Вы не можете прикреплять файлы к сообщениям
Вы не можете скачивать файлы