Вознесение Матушки Кюстерс / Mutter Küsters' Fahrt zum Himmel / Mother Kuesters Trip to Heaven (Райнер Вернер Фассбиндер / Rainer Werner Fassbinder) [1975, ФРГ, драма, DVDRip] VO + Sub Rus, Eng + Original Ger


Статистика раздачи [Обновить пиров]
Размер:  1.61 GB   |    Зарегистрирован:  8 месяцев 12 дней   |    Скачан:  0 раз

Полного источника не было: Никогда

 
   
 
 
 

[Цитировать]

Вознесение Матушки Кюстерс / Mutter Küsters' Fahrt zum Himmel / Mother Kuesters Trip to Heaven
Страна: ФРГ
Жанр: драма
Год выпуска: 1975
Продолжительность: 01:52:46
Перевод: Одноголосый закадровый
Cубтитры: английские, русские (на альтернативную концовку) - imvolk-13
Оригинальная аудиодорожка: немецкий

Режиссер: Райнер Вернер Фассбиндер / Rainer Werner Fassbinder
В ролях: Бригитта Мира, Ингрид Кавен, Маргит Карстенсен, Карлхайнц Бём, Ирм Херманн, Готфрид Йон, Петер Керн, Курт Рааб, Густав Хольцапфель, Лило Пемпайт
Описание: Муж Эммы Кюстерс, безропотный рабочий, не выдержал однажды нервного напряжения, убил своего босса и покончил жизнь самоубийством. Бедная вдова тщетно пытается понять своим жалким умом: отчего это произошло? Какова причина отчуждения её детей, равнодушия окружающих, нахальства и бесцеремонности газетчиков, решивших раздуть настоящий скандал и сделать из покойного супруга одиозную фигуру сумасшедшего или неуравновешенного негодяя?
Качество видео: DVDRip
Формат видео: AVI
Видео: 640x480 (1.33:1), 25 fps, XviD build 73 ~1645 kbps avg, 0.21 bit/pixel
Аудио: 48 kHz, AC3 Dolby Digital, 2/0 (L,R) ch, ~192 kbps - одноголосый
Аудио: 48 kHz, AC3 Dolby Digital, 2/0 (L,R) ch, ~192 kbps - оригинал (отдельным файлом)

MediaInfo

Общее
Полное имя : H:\Mutter.Kusters.Fahrt.zum.Himmel.1975.dvdrip_[1.46]_[teko]\Mutter.Kusters.Fahrt.zum.Himmel.1975.dvdrip_[1.46].avi
Формат : AVI
Формат/Информация : Audio Video Interleave
Размер файла : 1,46 Гбайт
Продолжительность : 1 ч. 52 м.
Общий поток : 1848 Кбит/сек
Программа кодирования : VirtualDubMod 1.5.10.3 | www.virtualdub-fr.org || (build 2550/release)
Библиотека кодирования : VirtualDubMod build 2550/release
Видео
Идентификатор : 0
Формат : MPEG-4 Visual
Профиль формата : Advanced Simple@L5
Параметр BVOP формата : 1
Параметр QPel формата : Нет
Параметр GMC формата : Без точки перехода
Параметр матрицы формата : Выборочная
Идентификатор кодека : XVID
Идентификатор кодека/Подсказка : XviD
Продолжительность : 1 ч. 52 м.
Битрейт : 1646 Кбит/сек
Ширина : 640 пикселей
Высота : 480 пикселей
Соотношение сторон : 4:3
Частота кадров : 25,000 кадров/сек
Цветовое пространство : YUV
Субдискретизация насыщенности : 4:2:0
Битовая глубина : 8 бит
Тип развёртки : Прогрессивная
Метод сжатия : С потерями
Бит/(Пиксели*Кадры) : 0.214
Размер потока : 1,30 Гбайт (89%)
Библиотека кодирования : XviD 73
Аудио
Идентификатор : 1
Формат : AC-3
Формат/Информация : Audio Coding 3
Расширение режима : CM (complete main)
Параметр Endianness формата : Big
Идентификатор кодека : 2000
Продолжительность : 1 ч. 52 м.
Вид битрейта : Постоянный
Битрейт : 192 Кбит/сек
Каналы : 2 канала
Расположение каналов : Front: L R
Частота : 48,0 КГц
Битовая глубина : 16 бит
Метод сжатия : С потерями
Размер потока : 155 Мбайт (10%)
Выравнивание : Разделение по промежуткам
Продолжительность промежутка : 40 мс. (1,00 видеокадр)
Время предзагрузки промежутка : 500 мс.
[teatrix.ru].t22517.torrent 
Торрент: Зарегистрирован [ 2016-03-21 00:14 ] · 703A19301F56A94807377036F32777636B41C4B5

Скачать .torrent

Скачать

17 KB

Статус: проверено
Скачан: 0 раз
Размер: 1.61 GB
terms.php



Быстрый ответ

Имя:

      
Для отправки сообщений необходимо включить JavaScript
Показать сообщения:    

Текущее время: 02-Дек 21:15

Часовой пояс: UTC + 3


Вы можете начинать темы
Вы можете отвечать на сообщения
Вы не можете редактировать свои сообщения
Вы не можете удалять свои сообщения
Вы не можете голосовать в опросах
Вы не можете прикреплять файлы к сообщениям
Вы можете скачивать файлы