(Classical Crossover, Operatic Pop) Andrea Bocelli - Cinema (Deluxe Edition) - 2015, FLAC (image+.cue) lossless


 

[Цитировать]

Andrea Bocelli / Cinema (Deluxe Edition)
Жанр: Classical Crossover, Operatic Pop
Страна-производитель диска: EU
Год издания диска: 2015
Издатель (лейбл): Sugar S.r.l.
Номер по каталогу: 8033120986383
Страна: IT
Аудиокодек: FLAC
Тип рипа: image+.cue
Битрейт аудио: lossless
Продолжительность: 01:01:22
Источник: usenet
Наличие сканов в содержимом раздачи: да

01. Maria (From 'West Side Story') (3:13)
02. La Chanson de Lara (From 'Dr. Zhivago') (3:15)
03. Moon River (From 'Breakfast at Tiffany's') (3:49)
04. E piщ ti penso (From 'Once Upon a Time in America') (4:28)
05. Be My Love (From 'The Toast of New Orleans') (2:54)
06. The Music of the Night (From 'The Phantom of the Opera' (3:57)
07. Brucia la terra (From 'The Godfather') (4:16)
08. Por una cabeza (From 'Scent of a Woman') (3:22)
09. No llores por mi Argentina (From 'Evita') (4:24)
10. L'amore и una cosa meravigliosa (From 'Love Is a Many-Splendored Thing') (3:24)
11. Mi mancherai (From 'Il postino / The Postman') (5:06)
12. Cheek to Cheek (From 'Top Hat') (2:56)
13. Sorridi amore vai (From 'Life Is Beautiful') (3:22)
14. Historia de amor (From 'Love Story') (4:29)
15. Ol' Man River (From 'Showboat') (4:07)
16. Nelle tue mani (Now We Are Free) (From 'Gladiator') (4:21)

Лог создания рипа

Exact Audio Copy V1.1 from 23. June 2015
EAC extraction logfile from 25. October 2015, 14:08
Andrea Bocelli / Cinema (Deluxe Edition)
Used drive : hp CDDVDW SH-216DB Adapter: 1 ID: 0
Read mode : Secure
Utilize accurate stream : Yes
Defeat audio cache : Yes
Make use of C2 pointers : No
Read offset correction : 6
Overread into Lead-In and Lead-Out : No
Fill up missing offset samples with silence : Yes
Delete leading and trailing silent blocks : No
Null samples used in CRC calculations : Yes
Used interface : Native Win32 interface for Win NT & 2000
Used output format : Internal WAV Routines
Sample format : 44.100 Hz; 16 Bit; Stereo
TOC of the extracted CD
Track | Start | Length | Start sector | End sector
---------------------------------------------------------
1 | 0:00.00 | 3:13.03 | 0 | 14477
2 | 3:13.03 | 3:14.71 | 14478 | 29098
3 | 6:27.74 | 3:49.27 | 29099 | 46300
4 | 10:17.26 | 4:27.38 | 46301 | 66363
5 | 14:44.64 | 2:53.51 | 66364 | 79389
6 | 17:38.40 | 3:57.31 | 79390 | 97195
7 | 21:35.71 | 4:16.37 | 97196 | 116432
8 | 25:52.33 | 3:21.59 | 116433 | 131566
9 | 29:14.17 | 4:23.72 | 131567 | 151363
10 | 33:38.14 | 3:23.49 | 151364 | 166637
11 | 37:01.63 | 5:05.55 | 166638 | 189567
12 | 42:07.43 | 2:56.12 | 189568 | 202779
13 | 45:03.55 | 3:21.70 | 202780 | 217924
14 | 48:25.50 | 4:28.45 | 217925 | 238069
15 | 52:54.20 | 4:07.20 | 238070 | 256614
16 | 57:01.40 | 4:21.19 | 256615 | 276208
Range status and errors
Selected range
Filename E:\POST\Post Nieuw\Andrea Bocelli - Cinema\Andrea Bocelli - Cinema (Deluxe Edition).wav
Peak level 100.0 %
Extraction speed 7.6 X
Range quality 100.0 %
Test CRC FB1E5603
Copy CRC FB1E5603
Copy OK
No errors occurred
AccurateRip summary
Track 1 not present in database
Track 2 not present in database
Track 3 not present in database
Track 4 not present in database
Track 5 not present in database
Track 6 not present in database
Track 7 not present in database
Track 8 not present in database
Track 9 not present in database
Track 10 not present in database
Track 11 not present in database
Track 12 not present in database
Track 13 not present in database
Track 14 not present in database
Track 15 not present in database
Track 16 not present in database
None of the tracks are present in the AccurateRip database
End of status report

Содержание индексной карты (.CUE)

REM GENRE Pop
REM DATE 2015
REM DISCID E30E6210
REM COMMENT "ExactAudioCopy v1.1"
PERFORMER "Andrea Bocelli"
TITLE "Cinema (Deluxe Edition)"
FILE "Andrea Bocelli - Cinema (Deluxe Edition).wav" WAVE
TRACK 01 AUDIO
TITLE "Maria (From 'West Side Story')"
PERFORMER "Andrea Bocelli"
FLAGS DCP
INDEX 01 00:00:00
TRACK 02 AUDIO
TITLE "La Chanson de Lara (From 'Dr. Zhivago')"
PERFORMER "Andrea Bocelli"
FLAGS DCP
INDEX 01 03:13:03
TRACK 03 AUDIO
TITLE "Moon River (From 'Breakfast at Tiffany's')"
PERFORMER "Andrea Bocelli"
FLAGS DCP
INDEX 01 06:27:74
TRACK 04 AUDIO
TITLE "E piщ ti penso (From 'Once Upon a Time in America')"
PERFORMER "Andrea Bocelli"
FLAGS DCP
INDEX 01 10:17:26
TRACK 05 AUDIO
TITLE "Be My Love (From 'The Toast of New Orleans')"
PERFORMER "Andrea Bocelli"
FLAGS DCP
INDEX 01 14:44:64
TRACK 06 AUDIO
TITLE "The Music of the Night (From 'The Phantom of the Opera'"
PERFORMER "Andrea Bocelli"
FLAGS DCP
INDEX 01 17:38:40
TRACK 07 AUDIO
TITLE "Brucia la terra (From 'The Godfather')"
PERFORMER "Andrea Bocelli"
FLAGS DCP
INDEX 01 21:35:71
TRACK 08 AUDIO
TITLE "Por una cabeza (From 'Scent of a Woman')"
PERFORMER "Andrea Bocelli"
FLAGS DCP
INDEX 01 25:52:33
TRACK 09 AUDIO
TITLE "No llores por mi Argentina (From 'Evita')"
PERFORMER "Andrea Bocelli"
FLAGS DCP
INDEX 01 29:14:17
TRACK 10 AUDIO
TITLE "L'amore и una cosa meravigliosa (From 'Love Is a Many-Splendored Thing')"
PERFORMER "Andrea Bocelli"
FLAGS DCP
INDEX 01 33:38:14
TRACK 11 AUDIO
TITLE "Mi mancherai (From 'Il postino / The Postman')"
PERFORMER "Andrea Bocelli"
FLAGS DCP
INDEX 01 37:01:63
TRACK 12 AUDIO
TITLE "Cheek to Cheek (From 'Top Hat')"
PERFORMER "Andrea Bocelli"
FLAGS DCP
INDEX 01 42:07:43
TRACK 13 AUDIO
TITLE "Sorridi amore vai (From 'Life Is Beautiful')"
PERFORMER "Andrea Bocelli"
FLAGS DCP
INDEX 01 45:03:55
TRACK 14 AUDIO
TITLE "Historia de amor (From 'Love Story')"
PERFORMER "Andrea Bocelli"
FLAGS DCP
INDEX 01 48:25:50
TRACK 15 AUDIO
TITLE "Ol' Man River (From 'Showboat')"
PERFORMER "Andrea Bocelli"
FLAGS DCP
INDEX 01 52:54:20
TRACK 16 AUDIO
TITLE "Nelle tue mani (Now We Are Free) (From 'Gladiator')"
PERFORMER "Andrea Bocelli"
FLAGS DCP
INDEX 01 57:01:40

Лог проверки качества

fooCDtect - foobar2000 + auCDtect, baralgin.
auCDtect: CD records authenticity detector, version 0.8.2
Copyright (c) 2004 Oleg Berngardt. All rights reserved.
Copyright (c) 2004 Alexander Djourik. All rights reserved.
mode: 0
===========================================
Track: 01. Andrea Bocelli - Maria (From 'West Side Story')
Processing file: [01. Andrea Bocelli - Maria (From 'West Side Story').aucdtect]
Detected average hi-boundary frequency: 2.048583e+004 Hz
Detected average lo-boundary frequency: 1.448671e+004 Hz
Detected average hi-cut frequency: 2.138624e+004 Hz
Detected average lo-cut frequency: 1.035428e+004 Hz
Maximum probablis boundary frequency: 2.189100e+004 Hz
Coefficient of nonlinearity of a phase: 1.076678e-001
First order smothness: 4.130958e-001
Second order smothness: 6.562350e-001
------------------------------------------------------------
This track looks like CDDA with probability 100%
===========================================
Track: 02. Andrea Bocelli - La Chanson de Lara (From 'Dr. Zhivago')
Processing file: [02. Andrea Bocelli - La Chanson de Lara (From 'Dr. Zhivago').aucdtect]
Detected average hi-boundary frequency: 2.060868e+004 Hz
Detected average lo-boundary frequency: 1.515394e+004 Hz
Detected average hi-cut frequency: 2.161454e+004 Hz
Detected average lo-cut frequency: 1.270371e+004 Hz
Maximum probablis boundary frequency: 2.189100e+004 Hz
Coefficient of nonlinearity of a phase: 1.932432e-001
First order smothness: 4.295943e-001
Second order smothness: 6.892601e-001
------------------------------------------------------------
This track looks like CDDA with probability 100%
===========================================
Track: 03. Andrea Bocelli - Moon River (From 'Breakfast at Tiffany's')
Processing file: [03. Andrea Bocelli - Moon River (From 'Breakfast at Tiffany's').aucdtect]
Detected average hi-boundary frequency: 2.052536e+004 Hz
Detected average lo-boundary frequency: 1.473016e+004 Hz
Detected average hi-cut frequency: 2.162307e+004 Hz
Detected average lo-cut frequency: 1.047168e+004 Hz
Maximum probablis boundary frequency: 2.189100e+004 Hz
Coefficient of nonlinearity of a phase: 1.805896e-001
First order smothness: 4.081881e-001
Second order smothness: 6.639643e-001
------------------------------------------------------------
This track looks like CDDA with probability 100%
===========================================
Track: 04. Andrea Bocelli - E piщ ti penso (From 'Once Upon a Time in America')
Processing file: [04. Andrea Bocelli - E piщ ti penso (From 'Once Upon a Time in America').aucdtect]
Detected average hi-boundary frequency: 2.052143e+004 Hz
Detected average lo-boundary frequency: 1.481737e+004 Hz
Detected average hi-cut frequency: 2.149522e+004 Hz
Detected average lo-cut frequency: 1.078638e+004 Hz
Maximum probablis boundary frequency: 2.189100e+004 Hz
Coefficient of nonlinearity of a phase: 1.931144e-001
First order smothness: 4.002785e-001
Second order smothness: 6.707275e-001
------------------------------------------------------------
This track looks like CDDA with probability 100%
===========================================
Track: 05. Andrea Bocelli - Be My Love (From 'The Toast of New Orleans')
Processing file: [05. Andrea Bocelli - Be My Love (From 'The Toast of New Orleans').aucdtect]
Detected average hi-boundary frequency: 2.054373e+004 Hz
Detected average lo-boundary frequency: 1.548034e+004 Hz
Detected average hi-cut frequency: 2.131166e+004 Hz
Detected average lo-cut frequency: 1.032249e+004 Hz
Maximum probablis boundary frequency: 2.189100e+004 Hz
Coefficient of nonlinearity of a phase: 7.238630e-002
First order smothness: 4.242100e-001
Second order smothness: 6.197108e-001
------------------------------------------------------------
This track looks like CDDA with probability 100%
===========================================
Track: 06. Andrea Bocelli - The Music of the Night (From 'The Phantom of the Opera'
Processing file: [06. Andrea Bocelli - The Music of the Night (From 'The Phantom of the Opera'.aucdtect]
Detected average hi-boundary frequency: 2.051371e+004 Hz
Detected average lo-boundary frequency: 1.474666e+004 Hz
Detected average hi-cut frequency: 2.148487e+004 Hz
Detected average lo-cut frequency: 1.135694e+004 Hz
Maximum probablis boundary frequency: 2.189100e+004 Hz
Coefficient of nonlinearity of a phase: 1.683201e-001
First order smothness: 3.887799e-001
Second order smothness: 6.822283e-001
------------------------------------------------------------
This track looks like CDDA with probability 100%
===========================================
Track: 07. Andrea Bocelli - Brucia la terra (From 'The Godfather')
Processing file: [07. Andrea Bocelli - Brucia la terra (From 'The Godfather').aucdtect]
Detected average hi-boundary frequency: 2.054356e+004 Hz
Detected average lo-boundary frequency: 1.472223e+004 Hz
Detected average hi-cut frequency: 2.155835e+004 Hz
Detected average lo-cut frequency: 1.218673e+004 Hz
Maximum probablis boundary frequency: 2.189100e+004 Hz
Coefficient of nonlinearity of a phase: 1.322882e-001
First order smothness: 4.302832e-001
Second order smothness: 6.953522e-001
------------------------------------------------------------
This track looks like CDDA with probability 100%
===========================================
Track: 08. Andrea Bocelli - Por una cabeza (From 'Scent of a Woman')
Processing file: [08. Andrea Bocelli - Por una cabeza (From 'Scent of a Woman').aucdtect]
Detected average hi-boundary frequency: 2.073557e+004 Hz
Detected average lo-boundary frequency: 1.560775e+004 Hz
Detected average hi-cut frequency: 2.172783e+004 Hz
Detected average lo-cut frequency: 1.069645e+004 Hz
Maximum probablis boundary frequency: 2.189100e+004 Hz
Coefficient of nonlinearity of a phase: 1.275788e-001
First order smothness: 4.514787e-001
Second order smothness: 6.012015e-001
------------------------------------------------------------
This track looks like CDDA with probability 100%
===========================================
Track: 09. Andrea Bocelli - No llores por mi Argentina (From 'Evita')
Processing file: [09. Andrea Bocelli - No llores por mi Argentina (From 'Evita').aucdtect]
Detected average hi-boundary frequency: 2.052248e+004 Hz
Detected average lo-boundary frequency: 1.488137e+004 Hz
Detected average hi-cut frequency: 2.151296e+004 Hz
Detected average lo-cut frequency: 8.767533e+003 Hz
Maximum probablis boundary frequency: 2.189100e+004 Hz
Coefficient of nonlinearity of a phase: 1.032588e-001
First order smothness: 4.353357e-001
Second order smothness: 5.890459e-001
------------------------------------------------------------
This track looks like CDDA with probability 100%
===========================================
Track: 10. Andrea Bocelli - L'amore и una cosa meravigliosa (From 'Love Is a Many-Splendored Thing')
Processing file: [10. Andrea Bocelli - L'amore и una cosa meravigliosa (From 'Love Is a Many-Splendored Thing').aucdtect]
Detected average hi-boundary frequency: 2.071228e+004 Hz
Detected average lo-boundary frequency: 1.538421e+004 Hz
Detected average hi-cut frequency: 2.158949e+004 Hz
Detected average lo-cut frequency: 1.002423e+004 Hz
Maximum probablis boundary frequency: 2.189100e+004 Hz
Coefficient of nonlinearity of a phase: 1.171648e-001
First order smothness: 4.429745e-001
Second order smothness: 6.053832e-001
------------------------------------------------------------
This track looks like CDDA with probability 100%
===========================================
Track: 11. Andrea Bocelli - Mi mancherai (From 'Il postino - The Postman')
Processing file: [11. Andrea Bocelli - Mi mancherai (From 'Il postino - The Postman').aucdtect]
Detected average hi-boundary frequency: 2.060246e+004 Hz
Detected average lo-boundary frequency: 1.399718e+004 Hz
Detected average hi-cut frequency: 2.151991e+004 Hz
Detected average lo-cut frequency: 1.300134e+004 Hz
Maximum probablis boundary frequency: 2.189100e+004 Hz
Coefficient of nonlinearity of a phase: 1.187933e-001
First order smothness: 4.911531e-001
Second order smothness: 7.284930e-001
------------------------------------------------------------
This track looks like CDDA with probability 100%
===========================================
Track: 12. Andrea Bocelli - Cheek to Cheek (From 'Top Hat')
Processing file: [12. Andrea Bocelli - Cheek to Cheek (From 'Top Hat').aucdtect]
Detected average hi-boundary frequency: 2.069576e+004 Hz
Detected average lo-boundary frequency: 1.588545e+004 Hz
Detected average hi-cut frequency: 2.173959e+004 Hz
Detected average lo-cut frequency: 1.061637e+004 Hz
Maximum probablis boundary frequency: 2.189100e+004 Hz
Coefficient of nonlinearity of a phase: 9.859953e-002
First order smothness: 4.702444e-001
Second order smothness: 5.430393e-001
------------------------------------------------------------
This track looks like CDDA with probability 100%
===========================================
Track: 13. Andrea Bocelli - Sorridi amore vai (From 'Life Is Beautiful')
Processing file: [13. Andrea Bocelli - Sorridi amore vai (From 'Life Is Beautiful').aucdtect]
Detected average hi-boundary frequency: 2.072738e+004 Hz
Detected average lo-boundary frequency: 1.633892e+004 Hz
Detected average hi-cut frequency: 2.175782e+004 Hz
Detected average lo-cut frequency: 1.311442e+004 Hz
Maximum probablis boundary frequency: 2.189100e+004 Hz
Coefficient of nonlinearity of a phase: 8.518095e-002
First order smothness: 4.787234e-001
Second order smothness: 6.003700e-001
------------------------------------------------------------
This track looks like CDDA with probability 100%
===========================================
Track: 14. Andrea Bocelli - Historia de amor (From 'Love Story')
Processing file: [14. Andrea Bocelli - Historia de amor (From 'Love Story').aucdtect]
Detected average hi-boundary frequency: 2.069686e+004 Hz
Detected average lo-boundary frequency: 1.536836e+004 Hz
Detected average hi-cut frequency: 2.177185e+004 Hz
Detected average lo-cut frequency: 1.305152e+004 Hz
Maximum probablis boundary frequency: 2.189100e+004 Hz
Coefficient of nonlinearity of a phase: 6.137623e-002
First order smothness: 4.624739e-001
Second order smothness: 6.567060e-001
------------------------------------------------------------
This track looks like CDDA with probability 100%
===========================================
Track: 15. Andrea Bocelli - Ol' Man River (From 'Showboat')
Processing file: [15. Andrea Bocelli - Ol' Man River (From 'Showboat').aucdtect]
Detected average hi-boundary frequency: 2.052326e+004 Hz
Detected average lo-boundary frequency: 1.499203e+004 Hz
Detected average hi-cut frequency: 2.147993e+004 Hz
Detected average lo-cut frequency: 1.043590e+004 Hz
Maximum probablis boundary frequency: 2.189100e+004 Hz
Coefficient of nonlinearity of a phase: 5.891080e-002
First order smothness: 3.811862e-001
Second order smothness: 6.358141e-001
------------------------------------------------------------
This track looks like CDDA with probability 100%
===========================================
Track: 16. Andrea Bocelli - Nelle tue mani (Now We Are Free) (From 'Gladiator')
Processing file: [16. Andrea Bocelli - Nelle tue mani (Now We Are Free) (From 'Gladiator').aucdtect]
Detected average hi-boundary frequency: 2.083860e+004 Hz
Detected average lo-boundary frequency: 1.576422e+004 Hz
Detected average hi-cut frequency: 2.160246e+004 Hz
Detected average lo-cut frequency: 1.107060e+004 Hz
Maximum probablis boundary frequency: 2.189100e+004 Hz
Coefficient of nonlinearity of a phase: 1.160245e-001
First order smothness: 4.413229e-001
Second order smothness: 6.123755e-001
------------------------------------------------------------
This track looks like CDDA with probability 100%
===========================================

Динамический диапазон

foobar2000 1.3.8 / Dynamic Range Meter 1.1.1
log date: 2015-10-26 20:48:14
--------------------------------------------------------------------------------
Analyzed: Andrea Bocelli / Cinema (Deluxe Edition)
--------------------------------------------------------------------------------
DR Peak RMS Duration Track
--------------------------------------------------------------------------------
DR11 -0.19 dB -15.35 dB 3:13 01-Maria (From 'West Side Story')
DR10 0.00 dB -14.27 dB 3:15 02-La Chanson de Lara (From 'Dr. Zhivago')
DR12 0.00 dB -16.44 dB 3:49 03-Moon River (From 'Breakfast at Tiffany's')
DR10 -0.07 dB -15.38 dB 4:28 04-E piщ ti penso (From 'Once Upon a Time in America')
DR9 0.00 dB -13.01 dB 2:54 05-Be My Love (From 'The Toast of New Orleans')
DR11 0.00 dB -14.84 dB 3:57 06-The Music of the Night (From 'The Phantom of the Opera'
DR10 0.00 dB -14.47 dB 4:16 07-Brucia la terra (From 'The Godfather')
DR10 0.00 dB -12.58 dB 3:22 08-Por una cabeza (From 'Scent of a Woman')
DR10 0.00 dB -15.06 dB 4:24 09-No llores por mi Argentina (From 'Evita')
DR10 0.00 dB -12.29 dB 3:24 10-L'amore и una cosa meravigliosa (From 'Love Is a Many-Splendored Thing')
DR10 0.00 dB -14.53 dB 5:06 11-Mi mancherai (From 'Il postino / The Postman')
DR10 0.00 dB -13.19 dB 2:56 12-Cheek to Cheek (From 'Top Hat')
DR10 0.00 dB -12.68 dB 3:22 13-Sorridi amore vai (From 'Life Is Beautiful')
DR11 0.00 dB -13.50 dB 4:29 14-Historia de amor (From 'Love Story')
DR8 0.00 dB -13.54 dB 4:07 15-Ol' Man River (From 'Showboat')
DR8 0.00 dB -11.07 dB 4:21 16-Nelle tue mani (Now We Are Free) (From 'Gladiator')
--------------------------------------------------------------------------------
Number of tracks: 16
Official DR value: DR10
Samplerate: 44100 Hz
Channels: 2
Bits per sample: 16
Bitrate: 724 kbps
Codec: FLAC
================================================================================



Показать сообщения:    

Текущее время: 03-Дек 09:50

Часовой пояс: UTC + 3


Вы не можете начинать темы
Вы не можете отвечать на сообщения
Вы не можете редактировать свои сообщения
Вы не можете удалять свои сообщения
Вы не можете голосовать в опросах
Вы не можете прикреплять файлы к сообщениям
Вы не можете скачивать файлы