Культовая Америка в объективе Стива Шапиро / Steve Schapiro, an Eye on American Icons (Julia Kuperberg / Джулия Куперберг, Clara Kuperberg / Клара Куперберг) [2013, Документальный, личности, кумиры, SATRip-AVC] MVO (СВ-Дубль)


Статистика раздачи [Обновить пиров]
Размер:  774 MB   |    Зарегистрирован:  8 месяцев 16 дней   |    Скачан:  0 раз

Полного источника не было: Никогда

 
   
 
 
 

[Цитировать]

-Культовая Америка в объективе Стива Шапиро / Steve Schapiro, an Eye on American Icons- Год выпуска: 2013
Страна: США
Жанр: Документальный, личности, кумиры
Продолжительность: 00:52:55-Перевод: Профессиональный (многоголосый закадровый) студия "СВ-Дубль" по заказу ГТРК "Культура".
Cубтитры: нет-В ролях: Джуди Фостер, Дастин Хоффман, Майкл Манн, Сюзен Манн, Стив Шапиро, Бенедикт Ташен.-Режиссер: Julia Kuperberg / Джулия Куперберг, Clara Kuperberg / Клара Куперберг-Описание: На снимках знаменитого американского фотографа Стива Шапиро запечатлены главные политические, общественные и культурные события 1960-2000-х годов, героями которых были знаковые фигуры того времени: политические деятели, спортсмены, кинозвезды. Портреты Роберта Кеннеди, Мартина Лютера Кинга, Мохаммеда Али, Марлона Брандо и Джонни Деппа, сделанные Шапиро, стали не просто фотографиями знаменитостей, но и символическими вехами истории США. В 60-е годы, в период расцвета фотожурналистики, Стив Шапиро освещал важнейшие социальные и общественно-политические проблемы. В 1970-е, во время расцвета эпохи нового кино, он постоянно бывал на съемочной площадке таких киношедевров, как "Крестный отец", "Таксист" и "Апокалипсис сегодня".
Памяти Роберта Куперберга.-Доп. информация:

Производство: Wichita Films - OCS, 2013 г.
Сценарий: Клара Куперберг
Операторы: Кристиан Югено, Питер Крайевски, Джефф Уоттс-Сэмпл: https://yadi.sk/i/XndP3lL7k4KCA-Качество: SATRip-AVC
Формат: MKV
Видео кодек: H.264
Аудио кодек: AC3
Видео: 704@768x416 анаморф (1.846:1), 25 fps, ~1850 kbps
Аудио: 48 kHz, AC3 Dolby Digital, 2/0 (L,R) ch, ~192 kbps

MediaInfo

General
Unique ID : 185022065115653181413602086233039206278 (0x8B31F41C5E302BFE82982A5EC4E87786)
Complete name : C:\Torrent\Культовая Америка в объективе Стива Шапиро.2013.SATRip-AVC by Dmitrio7197\Культовая Америка в объективе Стива Шапиро.2013.SATRip-AVC by Dmitrio7197.mkv
Format : Matroska
Format version : Version 2
File size : 774 MiB
Duration : 52mn 55s
Overall bit rate : 2 044 Kbps
Encoded date : UTC 2015-10-27 14:50:37
Writing application : mkvmerge v6.1.0 ('Old Devil') built on Mar 4 2013 09:10:42
Writing library : libebml v1.3.0 + libmatroska v1.4.0
Video
ID : 1
Format : AVC
Format/Info : Advanced Video Codec
Format profile : High@L4.1
Format settings, CABAC : Yes
Format settings, ReFrames : 8 frames
Codec ID : V_MPEG4/ISO/AVC
Duration : 52mn 55s
Bit rate : 1 850 Kbps
Width : 704 pixels
Height : 416 pixels
Display aspect ratio : 1.85:1
Frame rate mode : Constant
Frame rate : 25.000 fps
Color space : YUV
Chroma subsampling : 4:2:0
Bit depth : 8 bits
Scan type : Progressive
Bits/(Pixel*Frame) : 0.253
Stream size : 686 MiB (89%)
Writing library : x264 core 130 r2273 b3065e6
Encoding settings : cabac=1 / ref=8 / deblock=1:0:0 / analyse=0x3:0x113 / me=umh / subme=10 / psy=1 / psy_rd=1.00:0.00 / mixed_ref=1 / me_range=24 / chroma_me=1 / trellis=2 / 8x8dct=1 / cqm=0 / deadzone=21,11 / fast_pskip=1 / chroma_qp_offset=-2 / threads=6 / lookahead_threads=1 / sliced_threads=0 / nr=0 / decimate=0 / interlaced=0 / bluray_compat=0 / constrained_intra=0 / bframes=8 / b_pyramid=2 / b_adapt=1 / b_bias=0 / direct=3 / weightb=1 / open_gop=0 / weightp=2 / keyint=250 / keyint_min=25 / scenecut=40 / intra_refresh=0 / rc_lookahead=40 / rc=2pass / mbtree=1 / bitrate=1850 / ratetol=1.0 / qcomp=0.60 / qpmin=0 / qpmax=69 / qpstep=4 / cplxblur=20.0 / qblur=0.5 / ip_ratio=1.40 / aq=1:1.00
Default : Yes
Forced : No
Audio
ID : 2
Format : AC-3
Format/Info : Audio Coding 3
Mode extension : CM (complete main)
Format settings, Endianness : Big
Codec ID : A_AC3
Duration : 52mn 55s
Bit rate mode : Constant
Bit rate : 192 Kbps
Channel(s) : 2 channels
Channel positions : Front: L R
Sampling rate : 48.0 KHz
Bit depth : 16 bits
Compression mode : Lossy
Stream size : 72.7 MiB (9%)
Default : Yes
Forced : No

Скриншоты

[teatrix.ru].t22519.torrent 
Торрент: Зарегистрирован [ 2016-03-21 00:13 ] · 66F4A8BC966F5AFEAF824DD21D69BEAB7BD2C403

Скачать .torrent

Скачать

16 KB

Статус: проверено
Скачан: 0 раз
Размер: 774 MB
terms.php



Быстрый ответ

Имя:

      
Для отправки сообщений необходимо включить JavaScript
Показать сообщения:    

Текущее время: 06-Дек 11:14

Часовой пояс: UTC + 3


Вы можете начинать темы
Вы можете отвечать на сообщения
Вы не можете редактировать свои сообщения
Вы не можете удалять свои сообщения
Вы не можете голосовать в опросах
Вы не можете прикреплять файлы к сообщениям
Вы можете скачивать файлы