The Yoga Collective - To the Moon and Back [2015, H.264, WEBRip, ENG] (Видеоурок)


Статистика раздачи [Обновить пиров]
Размер:  356 MB   |    Зарегистрирован:  8 месяцев 20 дней   |    Скачан:  0 раз

Полного источника не было: Никогда

 
   
 
 
 

[Цитировать]

To the Moon and Back- -Производитель: The Yoga Collective
Тип раздаваемого материала: Видеоурок
Автор: Anna Hanson
Продолжительность: 00:36:30
Сайт производителя: www.theyogacollective.com
Год выпуска: 2015
Язык: Английский
Перевод: Отсутствует
Описание: В этом классе мы будем исследовать луну приветствия, постоянного лунного полумесяца, и половина луны. Эта практика будет здорово, но не всегда легко. Это отличный способ положить конец дня и настроить самостоятельно для фантастический сон.-In this class we will explore moon salutations, standing crescent moon, and half moon. This practice will be sweet, but not necessarily easy. It’s a great way to end the day and set yourself up for a fantastic night’s sleep.
Level: Intermediate/Advanced--

Media Info

Video
ID : 1
Format : AVC
Format/Info : Advanced Video Codec
Format profile : Main@L4.0
Format settings, CABAC : Yes
Format settings, ReFrames : 4 frames
Codec ID : avc1
Codec ID/Info : Advanced Video Coding
Duration : 36mn 30s
Bit rate : 1 818 Kbps
Width : 1 280 pixels
Height : 720 pixels
Display aspect ratio : 16:9
Frame rate mode : Variable
Frame rate : 23.976 fps
Minimum frame rate : 23.974 fps
Maximum frame rate : 23.981 fps
Color space : YUV
Chroma subsampling : 4:2:0
Bit depth : 8 bits
Scan type : Progressive
Bits/(Pixel*Frame) : 0.082
Stream size : 258 MiB (92%)
Writing library : x264 core 142 r2479 dd79a61
Encoded date : UTC 2036-02-06 06:28:16
Tagged date : UTC 2036-02-06 06:28:16
Color primaries : BT.709-5, BT.1361, IEC 61966-2-4, SMPTE RP177
Transfer characteristics : BT.709-5, BT.1361
Matrix coefficients : BT.709-5, BT.1361, IEC 61966-2-4 709, SMPTE RP177
Audio
ID : 2
Format : AAC
Format/Info : Advanced Audio Codec
Format profile : LC
Codec ID : 40
Duration : 19mn 48s
Bit rate mode : Variable
Bit rate : 160 Kbps
Channel(s) : 2 channels
Channel positions : Front: L R
Sampling rate : 48.0 KHz
Compression mode : Lossy
Stream size : 22.7 MiB (8%)
Title : Stereo
Encoded date : UTC 2036-02-06 06:28:16
Tagged date : UTC 2036-02-06 06:28:16
Формат: MP4
Видео кодек: H.264
Аудио кодек: AAC
Видео: AVC, 1280x720, 16:9, 25.000 fps, ~ 1818 Kbps
Аудио: AAC, 48.0 KHz, ~ 130.0 Kbps, 2 channels

Скриншоты

[teatrix.ru].t22520.torrent 
Торрент: Зарегистрирован [ 2016-03-21 00:13 ] · D621E40D24ED57AFF56531C5C2842BE7CD42AB2E

Скачать .torrent

Скачать

28 KB

Статус: проверено
Скачан: 0 раз
Размер: 356 MB
terms.php



Быстрый ответ

Имя:

      
Для отправки сообщений необходимо включить JavaScript
Показать сообщения:    

Текущее время: 10-Дек 13:48

Часовой пояс: UTC + 3


Вы можете начинать темы
Вы можете отвечать на сообщения
Вы не можете редактировать свои сообщения
Вы не можете удалять свои сообщения
Вы не можете голосовать в опросах
Вы не можете прикреплять файлы к сообщениям
Вы можете скачивать файлы