Зиновий Пешков. Неизвестный сын Горького (Судьба легионера) (Ольга Доброва-Куликова) [2009, Документальный, биография, история, познавательный, IPTVRip]


Статистика раздачи [Обновить пиров]
Размер:  646 MB   |    Зарегистрирован:  8 месяцев 12 дней   |    Скачан:  0 раз

Полного источника не было: Никогда

 
   
 
 
 

[Цитировать]

Зиновий Пешков. Неизвестный сын Горького (Судьба легионера)
Дата/Год выпуска: 2009
Страна: Россия
Жанр: Документальный, биография, история, познавательный
Продолжительность: 00:43:14
Перевод: Не требуется
Русские субтитры: нет
Режиссер: Ольга Доброва-Куликова
Телеканал: История
Описание: В 1936 году при странных обстоятельствах из жизни уходит писатель Алексей Максимович Горький. Несмотря на его желание быть похороненным рядом с сыном Максимом на Новодевичьем кладбище, тело после прощания, не произведя вскрытия, кремируют. Урну с прахом писателя помещают в Кремлевскую стену. Когда во Франции полковник Иностранного легиона Зиновий Пешков прочтет в газетах о смерти великого писателя, он воскликнет: "Мой любимый отец! Они его убили"! В Советском Союзе до 80-х годов имя приемного сына Горького будет под запретом. Безрукого генерала сегодня мало кто помнит. Россия отвернулась от него и отняла единственную дочь, Франция забрала руку, но наградила почетом и уважением. Для советских граждан он был отщепенцем, для истинно русских в Париже - выкрестом и выскочкой, а для французов - генералом и героем, но все же чужим. Иностранцем. Легионером. Разобраться в хитросплетениях жизни этого человека непросто. В Париже его знали только как генерала Пешкова, а в Нижнем Новгороде еще помнили под именем Ешуа Золомон Мовшев Свердлов. О сложной судьбе брата первого советского премьера Якова Свердлова и приемного сына Горького - этот фильм.
Сэмпл: http://multi-up.com/1073214
качество: IPTVRip
формат: AVI
Видео: 720x544 (1.32:1), 25 fps, XviD MPEG-4 ~1887 kbps avg, 0.19 bit/pixel
Аудио: 44.1 kHz, AC3 Dolby Digital, 2/0 (L,R) Surround Encoded ch, ~192 kbps

MediaInfo

General
Complete name : W:\Pshichko66\Na zapis'\Документальные фильмы\Sud'ba legionera. Neizvestnyj syn Gor'kogo.avi
Format : AVI
Format/Info : Audio Video Interleave
File size : 646 MiB
Duration : 43mn 14s
Overall bit rate : 2 089 Kbps
Writing application : VirtualDubMod 1.5.10.2 (build 2540/release)
Writing library : VirtualDubMod build 2540/release
Video
ID : 0
Format : MPEG-4 Visual
Format profile : Advanced Simple@L5
Format settings, BVOP : 2
Format settings, QPel : No
Format settings, GMC : No warppoints
Format settings, Matrix : Custom
Codec ID : XVID
Codec ID/Hint : XviD
Duration : 43mn 14s
Bit rate : 1 888 Kbps
Width : 720 pixels
Height : 544 pixels
Display aspect ratio : 4:3
Frame rate : 25.000 fps
Color space : YUV
Chroma subsampling : 4:2:0
Bit depth : 8 bits
Scan type : Progressive
Compression mode : Lossy
Bits/(Pixel*Frame) : 0.193
Stream size : 584 MiB (90%)
Writing library : XviD 73
Audio
ID : 1
Format : AC-3
Format/Info : Audio Coding 3
Format profile : Dolby Digital
Mode extension : CM (complete main)
Format settings, Endianness : Big
Codec ID : 2000
Duration : 43mn 14s
Bit rate mode : Constant
Bit rate : 192 Kbps
Channel(s) : 2 channels
Channel positions : Front: L R
Sampling rate : 44.1 KHz
Compression mode : Lossy
Stream size : 59.3 MiB (9%)
Alignment : Split accross interleaves
Interleave, duration : 40 ms (1.00 video frame)
Interleave, preload duratio : 500 ms

Скриншоты

[teatrix.ru].t22521.torrent 
Торрент: Зарегистрирован [ 2016-03-21 00:13 ] · AEDD17162603EF667F3B333839685A72FD7B55F5

Скачать .torrent

Скачать

13 KB

Статус: проверено
Скачан: 0 раз
Размер: 646 MB
terms.php



Быстрый ответ

Имя:

      
Для отправки сообщений необходимо включить JavaScript
Показать сообщения:    

Текущее время: 02-Дек 23:09

Часовой пояс: UTC + 3


Вы можете начинать темы
Вы можете отвечать на сообщения
Вы не можете редактировать свои сообщения
Вы не можете удалять свои сообщения
Вы не можете голосовать в опросах
Вы не можете прикреплять файлы к сообщениям
Вы можете скачивать файлы