Открытый диапазон / Free Range / Ballaad maailma heakskiitmisest (Вейко Ыунпуу / Veiko Õunpuu) [2013, Эстония, драма, DVDRip] VO (Fatumovich) + Sub Rus + Original


Статистика раздачи [Обновить пиров]
Размер:  1.41 GB   |    Зарегистрирован:  8 месяцев 17 дней   |    Скачан:  1 раз

Полного источника не было: 21 день

 
   
 
 
 

[Цитировать]

Открытый диапазон / Free Range
Ballaad maailma heakskiitmisest
- Страна: Эстония
Жанр: драма
Год выпуска: 2013
Продолжительность: 01:27:00
Перевод: Одноголосый закадровый - Fatumovich
Cубтитры: русские
Оригинальная аудиодорожка: эстонский
Режиссер: Вейко Ыунпуу / Veiko Õunpuu
В ролях: Лаури Лэгл, Яаника Арум, Лаура Петерсон, Пеэтер Волконски, Роман Баскин, Рита Рааве, Меелис Ряммельд, Яан Ууспыльд-Описание: История о начинающем писателе, который из-за беременности своей девушки должен очень быстро определиться со своим местом в обществе. О скором отцовстве становится известно, когда его увольняют из газеты, и он собирается полностью посвятить себя литературе. Как жить так, чтобы впоследствии не было мучительно больно за бессмысленно прожитые годы, при этом оставаясь порядочным человеком? И каков вообще моральный долг отдельно взятого человека?-Сэмпл: http://multi-up.com/1073256
Качество видео: DVDRip
Формат видео: AVI
Видео: XVID 704x320 (2,2:1) 25fps 1684kbps
Аудио: MP3 44100Hz stereo 192kbps
Аудио 2: MP3 44100Hz stereo 128kbps
Формат субтитров: softsub (SRT)
Благодарю Белую сибирскую лису за помощь и поддержку и orion2033 за субтитры.

MediaInfo

Общее
Полное имя : F:\Free Range (Ballaad maailma heakskiitmisest)\Free Range.avi
Формат : AVI
Формат/Информация : Audio Video Interleave
Размер файла : 1,41 Гбайт
Продолжительность : 1 ч. 39 м.
Общий поток : 2021 Кбит/сек
Название фильма : free_range_Title1
Программа кодирования : VirtualDubMod 1.5.10.2 (build 2540/release)
Библиотека кодирования : VirtualDubMod build 2540/release
Видео
Идентификатор : 0
Формат : MPEG-4 Visual
Профиль формата : Advanced Simple@L5
Параметр BVOP формата : 2
Параметр QPel формата : Нет
Параметр GMC формата : Без точки перехода
Параметр матрицы формата : Default (MPEG)
Идентификатор кодека : XVID
Идентификатор кодека/Подсказка : XviD
Продолжительность : 1 ч. 39 м.
Битрейт : 1684 Кбит/сек
Ширина : 704 пикселя
Высота : 320 пикселей
Соотношение сторон : 2,2:1
Частота кадров : 25,000 кадров/сек
Цветовое пространство : YUV
Субдискретизация насыщенности : 4:2:0
Битовая глубина : 8 бит
Тип развёртки : Прогрессивная
Метод сжатия : С потерями
Бит/(Пиксели*Кадры) : 0.299
Размер потока : 1,17 Гбайт (83%)
Библиотека кодирования : XviD 67
Аудио #1
Идентификатор : 1
Формат : MPEG Audio
Версия формата : Version 1
Профиль формата : Layer 3
Режим : Joint stereo
Идентификатор кодека : 55
Идентификатор кодека/Подсказка : MP3
Продолжительность : 1 ч. 39 м.
Вид битрейта : Постоянный
Битрейт : 192 Кбит/сек
Каналы : 2 канала
Частота : 44,1 КГц
Метод сжатия : С потерями
Размер потока : 137 Мбайт (10%)
Выравнивание : Разделение по промежуткам
Продолжительность промежутка : 40 мс. (1,00 видеокадр)
Время предзагрузки промежутка : 500 мс.
Аудио #2
Идентификатор : 2
Формат : MPEG Audio
Версия формата : Version 1
Профиль формата : Layer 3
Идентификатор кодека : 55
Идентификатор кодека/Подсказка : MP3
Продолжительность : 1 ч. 39 м.
Вид битрейта : Постоянный
Битрейт : 128 Кбит/сек
Каналы : 2 канала
Частота : 44,1 КГц
Метод сжатия : С потерями
Размер потока : 91,2 Мбайт (6%)
Выравнивание : Соединение по промежуткам
Продолжительность промежутка : 26 мс. (0,65 видеокадр)
Время предзагрузки промежутка : 522 мс.
Библиотека кодирования : LAME3.99.5

Скриншот c названием фильма

Скриншоты

[teatrix.ru].t22522.torrent 
Торрент: Зарегистрирован [ 2016-03-21 00:13 ] · 1019FD1DAF81164E25930F1DC8F14940A8182051

Скачать .torrent

Скачать

15 KB

Статус: проверено
Скачан: 1 раз
Размер: 1.41 GB
terms.php



Быстрый ответ

Имя:

      
Для отправки сообщений необходимо включить JavaScript
Показать сообщения:    

Текущее время: 07-Дек 19:26

Часовой пояс: UTC + 3


Вы можете начинать темы
Вы можете отвечать на сообщения
Вы не можете редактировать свои сообщения
Вы не можете удалять свои сообщения
Вы не можете голосовать в опросах
Вы не можете прикреплять файлы к сообщениям
Вы можете скачивать файлы